<?xml version="1.0" standalone="no"?>
<!DOCTYPE svg PUBLIC "-//W3C//DTD SVG 1.1//EN" "http://www.w3.org/Graphics/SVG/1.1/DTD/svg11.dtd" >
<svg xmlns="http://www.w3.org/2000/svg">
<metadata>Generated by IcoMoon</metadata>
<defs>
<font id="icomoon" horiz-adv-x="1024">
<font-face units-per-em="1024" ascent="960" descent="-64" />
<missing-glyph horiz-adv-x="1024" />
<glyph unicode="&#x20;" horiz-adv-x="512" d="" />
<glyph unicode="&#xe900;" glyph-name="dislike" d="M117.125 362.383c0-49.359 40.013-89.372 89.373-89.372h29.137c49.359 0 89.373 40.013 89.373 89.372v402.177c0 49.359-40.013 89.373-89.373 89.373h-29.137c-49.359 0-89.373-40.013-89.373-89.373v-402.177zM415.432 809.247v-446.864l96.594-105.378c44.277-48.301 77.194-105.888 96.341-168.557l2.943-9.626c10.775-35.264 53.881-48.333 82.419-24.979 13.754 11.258 20.787 28.774 18.63 46.419l-23.84 195.091c0 37.019 30.010 36.912 67.027 36.912h42.202c60.326 0 109.235 79.023 109.235 139.351v40.485c0 222.534-178.598 297.145-366.002 297.145h-125.549z" />
<glyph unicode="&#xe901;" glyph-name="arrow-down-triangle" d="M396.733 384.103c51.466-85.78 77.199-128.103 115.247-128.103s63.78 42.323 115.247 128.103l10.465 17.44c46.411 77.348 69.611 116.022 53.067 145.241s-61.642 29.219-151.845 29.219h-53.867c-90.203 0-135.304 0-151.848-29.219s6.661-67.892 53.070-145.241l10.464-17.44z" />
<glyph unicode="&#xe902;" glyph-name="angle-down-small" d="M330.75 526.353c-28.526 0-42.812-34.47-22.641-54.626l75.083-75.038c60.721-60.681 91.078-91.021 128.804-91.021s68.083 30.34 128.802 91.021l75.085 75.038c20.173 20.156 5.884 54.626-22.643 54.626-8.491 0-16.636-3.371-22.639-9.374l-75.085-75.034c-31.637-31.62-50.91-50.688-66.586-62.643-7.236-5.517-11.657-7.868-14.080-8.879-1.83-0.764-2.479-0.759-2.812-0.755h-0.085c-0.333-0.004-0.981-0.009-2.812 0.755-2.423 1.011-6.844 3.362-14.080 8.879-15.676 11.955-34.948 31.023-66.586 62.643l-75.084 75.034c-6.005 6.003-14.149 9.374-22.641 9.374z" />
<glyph unicode="&#xe903;" glyph-name="angle-down" d="M217.236 618.667c-20.507 0-34.65-8.842-42.429-26.526s-4.596-33.199 9.546-46.545l142.138-132.13c48.794-45.376 87.863-79.411 117.212-102.097 29.346-22.69 59.221-34.035 89.63-34.035s60.284 11.345 89.63 34.035c29.35 22.686 68.42 56.721 117.214 102.097l142.135 132.13c14.144 13.347 17.327 28.861 9.549 46.545-7.782 17.684-21.922 26.526-42.432 26.526-5.658 0-11.315-1.001-16.969-3.003-5.658-2.002-10.611-5.005-14.852-9.009l-142.135-133.132c-25.459-23.356-46.498-42.705-63.117-58.057-16.619-15.347-31.642-27.358-45.082-36.032-11.311-8.678-19.443-13.683-24.397-15.014-4.949-1.335-8.132-2.005-9.545-2.005s-4.595 0.67-9.545 2.005c-4.954 1.331-13.086 6.336-24.397 15.014-13.44 8.674-28.463 20.685-45.082 36.032-16.619 15.351-37.657 34.701-63.115 58.057l-142.138 133.132c-4.243 4.004-9.193 7.007-14.851 9.009s-11.314 3.003-16.972 3.003z" />
<glyph unicode="&#xe904;" glyph-name="angle-left" d="M682.667 785.431c0 20.507-8.841 34.65-26.526 42.429s-33.199 4.596-46.545-9.546l-132.13-142.138c-45.376-48.794-79.41-87.863-102.099-117.21s-34.033-59.223-34.033-89.632c0-30.409 11.344-60.284 34.033-89.63 22.689-29.35 56.723-68.42 102.099-117.214l132.13-142.135c13.346-14.144 28.86-17.327 46.545-9.549 17.685 7.782 26.526 21.922 26.526 42.432 0 5.658-1.003 11.315-3.004 16.969-2.001 5.658-5.005 10.611-9.007 14.852l-133.133 142.135c-23.356 25.459-42.705 46.498-58.057 63.117-15.347 16.619-27.358 31.642-36.032 45.082-8.678 11.311-13.683 19.443-15.014 24.397-1.335 4.949-2.004 8.132-2.004 9.545s0.669 4.595 2.004 9.545c1.331 4.954 6.336 13.086 15.014 24.397 8.674 13.44 20.685 28.463 36.032 45.083 15.351 16.618 34.701 37.656 58.057 63.113l133.133 142.138c4.002 4.243 7.006 9.193 9.007 14.851s3.004 11.314 3.004 16.972z" />
<glyph unicode="&#xe905;" glyph-name="angle-right" d="M341.333 785.431c0 20.507 8.842 34.65 26.526 42.429s33.199 4.596 46.545-9.546l132.13-142.138c45.376-48.794 79.411-87.863 102.097-117.21 22.69-29.348 34.035-59.223 34.035-89.632s-11.345-60.284-34.035-89.63c-22.686-29.35-56.721-68.42-102.097-117.214l-132.13-142.135c-13.347-14.144-28.861-17.327-46.545-9.549-17.684 7.782-26.526 21.922-26.526 42.432 0 5.658 1.001 11.315 3.003 16.969 2.002 5.658 5.005 10.611 9.009 14.852l133.132 142.135c23.356 25.459 42.705 46.498 58.057 63.117 15.347 16.619 27.358 31.642 36.032 45.082 8.678 11.311 13.683 19.443 15.014 24.397 1.335 4.949 2.005 8.132 2.005 9.545s-0.67 4.595-2.005 9.545c-1.331 4.954-6.336 13.086-15.014 24.397-8.674 13.44-20.685 28.463-36.032 45.083-15.351 16.618-34.701 37.656-58.057 63.113l-133.132 142.138c-4.004 4.243-7.007 9.193-9.009 14.851s-3.003 11.314-3.003 16.972z" />
<glyph unicode="&#xe906;" glyph-name="angle-up" d="M806.763 277.333c20.51 0 34.65 8.841 42.432 26.526 7.778 17.685 4.595 33.199-9.549 46.545l-142.135 132.13c-48.794 45.376-87.863 79.41-117.214 102.099-29.346 22.689-59.221 34.033-89.63 34.033s-60.284-11.344-89.632-34.033c-29.347-22.689-68.417-56.723-117.21-102.099l-142.138-132.13c-14.143-13.346-17.326-28.86-9.547-46.545s21.922-26.526 42.429-26.526c5.657 0 11.314 1.003 16.972 3.004s10.607 5.005 14.851 9.007l142.138 133.133c25.457 23.356 46.495 42.705 63.113 58.057 16.62 15.347 31.643 27.358 45.083 36.032 11.311 8.678 19.443 13.683 24.397 15.014 4.949 1.335 8.132 2.004 9.545 2.004s4.595-0.669 9.545-2.004c4.954-1.331 13.086-6.336 24.397-15.014 13.44-8.674 28.463-20.685 45.082-36.032 16.619-15.351 37.658-34.701 63.117-58.057l142.135-133.133c4.241-4.002 9.195-7.006 14.852-9.007 5.653-2.001 11.311-3.004 16.969-3.004z" />
<glyph unicode="&#xe907;" glyph-name="arrow-diagonal-down" d="M755.392 775.639c9.126 9.129 20.032 13.694 32.713 13.694s23.582-4.564 32.713-13.694c9.131-9.129 13.696-20.034 13.696-32.714s-4.565-23.584-13.696-32.713l-491.462-491.465c25.359 3.046 56.551 8.879 93.576 17.498 37.025 8.623 82.418 19.529 136.178 32.717l92.058 23.582c5.069 1.015 10.014 2.155 14.835 3.426 4.817 1.267 9.762 2.406 14.835 3.422 8.111 2.027 15.974 2.027 23.582 0 7.607-2.031 14.199-5.833 19.78-11.413l0.759-0.759c9.131-9.131 13.316-19.908 12.553-32.333-0.759-12.425-5.449-22.95-14.071-31.573-7.1-7.1-14.963-11.665-23.586-13.692-8.623-2.031-17.498-4.058-26.628-6.089l-95.855-24.346c-52.749-13.184-98.901-24.341-138.462-33.472-40.069-9.638-74.938-15.851-104.608-18.641-29.67-2.786-55.41-1.899-77.219 2.662-20.795 4.565-38.546 14.204-53.255 28.911s-24.345 32.461-28.909 53.257c-4.565 21.807-5.452 47.548-2.663 77.218s9.003 64.538 18.639 104.606c9.129 39.561 20.288 85.713 33.474 138.462l24.345 95.858c2.029 9.129 4.058 18.005 6.086 26.627s6.594 16.483 13.694 23.584c8.622 8.622 19.146 13.314 31.572 14.074s23.204-3.424 32.333-12.553l0.761-0.761c5.579-5.579 9.383-12.172 11.412-19.78s2.029-15.469 0-23.584c-1.014-5.072-2.156-10.017-3.424-14.835s-2.409-9.763-3.423-14.835l-23.584-92.053c-13.187-53.764-24.091-99.157-32.713-136.179-8.622-37.026-14.455-68.22-17.498-93.577l491.465 491.462z" />
<glyph unicode="&#xe908;" d="M9.66 448c0 277.434 224.905 502.34 502.34 502.34s502.34-224.905 502.34-502.34c0-277.434-224.905-502.34-502.34-502.34s-502.34 224.905-502.34 502.34z" />
<glyph unicode="&#xe909;" d="M358.149 680.442c39.206 22.198 91.099-8.938 194.885-71.209l33.095-19.858c105.225-63.134 157.837-94.703 157.837-141.376s-52.612-78.241-157.837-141.376l-33.095-19.856c-103.785-62.273-155.679-93.408-194.885-71.211-39.206 22.2-39.206 82.716-39.206 203.749v57.387c0 121.033 0 181.549 39.206 203.749zM673.838 475.198c-22.872 18.795-58.557 40.357-112.561 72.758l-33.096 19.858c-53.294 31.978-88.566 52.991-115.312 64.081-12.904 5.354-20.795 7.042-25.418 7.34-3.621 0.232-4.701-0.371-5.503-0.825-0.804-0.456-1.876-1.072-3.54-4.295-2.125-4.119-4.736-11.753-6.785-25.573-4.249-28.639-4.378-69.698-4.378-131.849v-57.387c0-62.151 0.129-103.21 4.378-131.849 2.050-13.82 4.66-21.454 6.785-25.573 1.664-3.223 2.736-3.839 3.54-4.295 0.802-0.454 1.882-1.057 5.503-0.823 4.623 0.296 12.514 1.984 25.418 7.338 26.746 11.090 62.018 32.105 115.312 64.081l33.096 19.858c54.003 32.401 89.689 53.963 112.561 72.758 21.896 17.995 21.838 25.297 21.825 27.082v0.232c0.014 1.785 0.071 9.087-21.825 27.082z" />
<glyph unicode="&#xe90a;" glyph-name="arrow-diagonal-up" d="M264.364 161.391c-16.663-16.661-43.677-16.661-60.34 0s-16.662 43.678 0 60.339l457.031 457.036c-48.107-5.087-114.65-21.923-214.123-46.791l-85.27-21.318c-9.416-2.354-18.525-4.633-27.338-6.846l-0.394-0.099c-14.488-3.582-29.705 0.625-40.297 11.139l-0.256 0.255c0.002-0.002 0.002-0.002-0.012 0.012l-0.074 0.076c-17.22 17.481-14.243 43.367 1.24 59.088 12.75 12.946 29.452 14.915 46.434 19.161l89.049 22.262c194.662 48.669 292.915 73.235 347.23 18.923 54.31-54.312 29.743-152.568-18.923-347.231l-0.947-3.776-21.316-85.269c-4.241-16.973-6.212-33.702-19.149-46.447-15.723-15.484-41.621-18.449-59.102-1.229-0.107 0.107-0.085 0.085-0.085 0.085l-0.256 0.256c-10.513 10.59-14.72 25.809-11.14 40.299l0.102 0.393c2.21 8.815 4.489 17.924 6.844 27.337l21.321 85.274c24.862 99.452 41.698 165.99 46.788 214.094l-457.018-457.021z" />
<glyph unicode="&#xe90b;" glyph-name="arrow-right" d="M128.316 423.313c-11.995 0-22.158 4.459-30.487 13.38-8.33 8.917-12.495 19.797-12.495 32.64s4.165 23.723 12.495 32.64c8.33 8.922 18.492 13.38 30.487 13.38h645.734c-18.658 15.697-42.982 33.534-72.969 53.512-29.99 19.977-66.974 44.236-110.955 72.776l-75.968 48.16c-4.002 2.854-8 5.53-11.998 8.027s-7.996 5.173-11.994 8.027c-6.665 4.281-11.827 9.81-15.492 16.588s-5.5 14.092-5.5 21.94v1.070c0 12.843 4.331 23.367 12.996 31.572 8.661 8.205 18.658 12.308 29.986 12.308 9.331 0 17.493-2.319 24.491-6.956s14.161-9.454 21.491-14.448l78.967-50.301c43.315-27.826 80.964-52.442 112.951-73.846 32.653-21.405 59.644-41.561 80.969-60.468s37.649-37.636 48.981-56.188c10.662-17.835 15.991-37.103 15.991-57.792 0-20.693-5.329-39.957-15.991-57.792-11.332-18.551-27.657-37.282-48.981-56.188s-48.316-39.066-80.969-60.467c-31.987-21.406-69.636-46.020-112.951-73.847l-78.967-50.3c-7.33-4.996-14.494-9.813-21.491-14.451s-15.159-6.955-24.491-6.955c-11.328 0-21.325 4.105-29.986 12.309-8.666 8.205-12.996 18.726-12.996 31.569v1.071c0 7.851 1.835 15.164 5.5 21.939 3.665 6.78 8.828 12.309 15.492 16.589 3.998 2.854 7.996 5.53 11.994 8.026 3.998 2.5 7.996 5.175 11.998 8.030l75.968 48.158c43.981 28.54 80.964 52.8 110.955 72.777 29.986 19.981 54.31 37.815 72.969 53.513h-645.734z" />
<glyph unicode="&#xe90c;" glyph-name="arrow-up" d="M579.354 106.982c0-11.994-4.459-22.157-13.376-30.49-8.922-8.329-19.802-12.493-32.644-12.493s-23.723 4.164-32.64 12.493c-8.922 8.333-13.38 18.496-13.38 30.49v645.734c-15.697-18.659-33.532-42.982-53.513-72.97-19.977-29.988-44.235-66.973-72.775-110.955l-48.16-75.967c-2.854-4.002-5.53-8-8.027-11.998s-5.173-7.996-8.027-11.994c-4.281-6.665-9.81-11.827-16.588-15.492s-14.092-5.5-21.94-5.5h-1.070c-12.843 0-23.367 4.331-31.572 12.996-8.205 8.661-12.308 18.658-12.308 29.986 0 9.331 2.319 17.493 6.956 24.491s9.454 14.161 14.448 21.49l50.301 78.967c27.826 43.316 52.442 80.967 73.846 112.954 21.405 32.653 41.561 59.642 60.468 80.967 18.906 21.324 37.636 37.651 56.188 48.98 17.835 10.662 37.099 15.994 57.792 15.994 20.689 0 39.957-5.331 57.792-15.994 18.551-11.328 37.282-27.655 56.188-48.98s39.066-48.314 60.467-80.967c21.406-31.987 46.020-69.638 73.847-112.954l50.3-78.967c4.996-7.329 9.813-14.493 14.451-21.49s6.955-15.159 6.955-24.491c0-11.328-4.105-21.325-12.309-29.986-8.205-8.666-18.726-12.996-31.569-12.996h-1.071c-7.851 0-15.164 1.835-21.939 5.5-6.78 3.665-12.309 8.828-16.589 15.492-2.854 3.998-5.53 7.996-8.026 11.994-2.5 3.998-5.175 7.996-8.030 11.998l-48.158 75.967c-28.54 43.982-52.8 80.967-72.777 110.955-19.981 29.987-37.815 54.311-53.513 72.97v-645.734z" />
<glyph unicode="&#xe90d;" glyph-name="ufo" d="M656.943 558.805c2.044 5.534 4.39 16.743 4.39 38.528 0 20.109-11.251 45.507-40.747 68.83-29.329 23.191-69.461 37.837-108.587 37.837s-79.258-14.646-108.587-37.837c-29.495-23.323-40.747-48.721-40.747-68.83 0-21.785 2.348-32.994 4.39-38.528 1.268-3.437 2.074-4.278 4.289-5.817 10.828-7.521 44.847-19.655 140.654-19.655s129.826 12.134 140.655 19.655c2.214 1.539 3.021 2.38 4.288 5.817zM512 448c167.62 0 221.423 32.998 232.384 111.938 11.631-4.304 22.554-8.89 32.704-13.711 69.858-33.186 76.245-62.31 76.245-66.227s-6.387-33.045-76.245-66.227c-63.398-30.114-156.966-51.085-264.934-51.106-0.051 0-0.102 0-0.154 0-108.033 0-201.658 20.979-265.086 51.106-69.861 33.182-76.247 62.31-76.247 66.227s6.386 33.041 76.247 66.227c10.149 4.82 21.071 9.407 32.701 13.711 10.96-78.939 64.762-111.938 232.385-111.938zM469.333 278.332c-47.639 2.249-92.974 8.218-134.696 17.289l-60.754-141.76c-9.283-21.658-34.365-31.693-56.024-22.409-21.659 9.28-31.692 34.364-22.41 56.021l56.503 131.84c-101.327 37.056-166.619 95.249-166.619 160.687 0 72.931 81.101 136.865 202.803 172.563 31.539 79.118 127.375 136.771 223.864 136.771 96.491 0 192.324-57.652 223.863-136.771 121.702-35.698 202.803-99.632 202.803-172.563 0-65.438-65.293-123.631-166.618-160.687l56.499-131.84c9.284-21.658-0.751-46.741-22.409-56.021-21.658-9.284-46.741 0.751-56.021 22.409l-60.757 141.76c-41.719-9.071-87.057-15.040-134.694-17.289v-64.998c0-23.565-19.102-42.667-42.667-42.667s-42.667 19.102-42.667 42.667v64.998z" />
<glyph unicode="&#xe90e;" glyph-name="wallet" d="M511.981 704.006c-63.638 0-118.877-2.777-165.629-6.836-46.017-3.996-68.333-6.337-86.286-11.871-13.317-4.105-26.124-10.644-45.214-29.801-15.513-15.565-22.702-26.73-26.923-36.823h648.106c-4.221 10.099-11.411 21.261-26.915 36.82-19.091 19.157-31.901 25.699-45.226 29.805-17.965 5.536-40.294 7.878-86.333 11.873-46.746 4.057-101.968 6.832-165.581 6.832zM849.536 533.347h-675.11c-0.113-1.344-0.227-2.707-0.343-4.096-2.13-25.549-3.424-52.79-3.424-81.235 0-28.448 1.294-55.69 3.425-81.242 3.688-44.237 5.839-64.95 11.071-81.738 3.831-12.291 10.168-24.906 29.698-44.502 19.090-19.158 31.896-25.699 45.213-29.802 17.952-5.533 40.266-7.875 86.281-11.872 46.752-4.061 101.994-6.838 165.635-6.838 63.619 0 118.845 2.778 165.59 6.835 46.032 3.997 68.362 6.336 86.323 11.872 13.328 4.109 26.134 10.65 45.226 29.805 19.526 19.597 25.866 32.218 29.696 44.518 5.232 16.8 7.382 37.53 11.069 81.789 2.125 25.533 3.414 52.749 3.414 81.174 0 28.419-1.29 55.635-3.414 81.165-0.118 1.411-0.234 2.8-0.349 4.166zM338.97 782.18c49.187 4.271 106.886 7.156 173.011 7.156 66.099 0 123.782-2.884 172.96-7.152 86.403-7.499 129.606-11.249 184.618-66.458 55.014-55.209 58.461-96.629 65.357-179.467 2.304-27.667 3.712-57.251 3.712-88.243 0-30.995-1.408-60.582-3.712-88.253-6.896-82.832-10.342-124.25-65.354-179.459-55.014-55.206-98.214-58.957-184.611-66.458-49.178-4.269-106.867-7.152-172.97-7.152-66.128 0-123.83 2.886-173.018 7.158-86.361 7.498-129.542 11.248-184.549 66.448-55.008 55.197-58.459 96.592-65.362 179.386-2.309 27.69-3.72 57.306-3.72 88.33 0 31.021 1.411 60.634 3.719 88.326 6.903 82.794 10.354 124.19 65.363 179.389s98.191 58.949 184.556 66.448zM725.267 309.357c29.453 0 53.331 23.875 53.331 53.331 0 29.453-23.878 53.331-53.331 53.331s-53.328-23.878-53.328-53.331c0-29.456 23.875-53.331 53.328-53.331z" />
<glyph unicode="&#xe90f;" glyph-name="quote" horiz-adv-x="1446" d="M534.528 677.734c-81.92 0-141.312-12.288-178.176-36.864-34.816-24.576-52.224-64.512-52.224-119.808v-21.504h18.432c96.256 0 169.984-22.528 221.184-67.584 53.248-43.008 79.872-112.64 79.872-208.896 0-178.176-104.448-267.264-313.344-267.264-104.448 0-182.272 22.528-233.472 67.584s-76.8 119.808-76.8 224.256v218.112c0 172.032 40.96 293.888 122.88 365.568 81.92 73.728 219.136 110.592 411.648 110.592v-264.192zM1327.104 677.734c-81.92 0-141.312-12.288-178.176-36.864-34.816-24.576-52.224-64.512-52.224-119.808v-21.504h18.432c96.256 0 169.984-22.528 221.184-67.584 53.248-43.008 79.872-112.64 79.872-208.896 0-178.176-104.448-267.264-313.344-267.264-104.448 0-182.272 22.528-233.472 67.584s-76.8 119.808-76.8 224.256v218.112c0 172.032 40.96 293.888 122.88 365.568 81.92 73.728 219.136 110.592 411.648 110.592v-264.192z" />
<glyph unicode="&#xe910;" glyph-name="attention" d="M234.667 170.667c-24.889 24.887-40.296 51.853-46.222 80.887-5.926 29.039-10.963 68.151-15.111 117.333-0.593 13.039-1.185 26.223-1.778 39.556s-0.889 26.517-0.889 39.556c0 13.039 0.296 26.223 0.889 39.556s1.185 26.517 1.778 39.556c4.148 49.184 9.185 88.295 15.111 117.332s21.333 56 46.222 80.889c24.889 24.889 51.852 40.296 80.889 46.222s68.148 10.963 117.332 15.111c13.039 0.593 26.223 1.185 39.556 1.778s26.517 0.889 39.556 0.889c13.039 0 26.223-0.296 39.556-0.889s26.517-1.185 39.556-1.778c49.182-4.148 88.294-9.185 117.333-15.111 29.035-5.926 56-21.333 80.887-46.222s40.294-51.852 46.221-80.889c5.926-29.037 10.965-68.148 15.113-117.332 0.593-13.039 1.186-26.223 1.779-39.556s0.887-26.517 0.887-39.556c0-13.039-0.294-26.223-0.887-39.556s-1.186-26.517-1.779-39.556c-4.147-49.182-9.186-88.294-15.113-117.333-5.926-29.035-21.333-56-46.221-80.887s-51.853-40.294-80.887-46.221c-29.039-5.926-68.151-10.965-117.333-15.113-13.039-0.593-26.223-1.186-39.556-1.779s-26.517-0.887-39.556-0.887c-13.039 0-26.223 0.294-39.556 0.887s-26.517 1.186-39.556 1.779c-49.184 4.147-88.295 9.186-117.332 15.113s-56 21.333-80.889 46.221zM512 409.779c10.667 0 19.703 3.703 27.11 11.11s11.11 16.444 11.11 27.11v152c0 10.074-3.703 18.815-11.11 26.222s-16.444 11.111-27.11 11.111c-10.667 0-19.703-3.704-27.11-11.111s-11.11-16.148-11.11-26.222v-152c0-10.667 3.703-19.703 11.11-27.11s16.444-11.11 27.11-11.11zM559.113 296c0 13.039-4.595 24.294-13.781 33.779-9.182 9.481-20.292 14.221-33.331 14.221s-24.149-4.74-33.331-14.221c-9.186-9.485-13.781-20.74-13.781-33.779s4.595-24.149 13.781-33.335c9.182-9.182 20.292-13.777 33.331-13.777s24.149 4.595 33.331 13.777c9.186 9.186 13.781 20.297 13.781 33.335z" />
<glyph unicode="&#xe911;" glyph-name="book" d="M360 116.446c10.667-1.779 22.074-3.115 34.222-4.002s25.037-1.924 38.665-3.11c13.039-0.593 26.223-1.186 39.556-1.779s26.517-0.887 39.556-0.887c13.039 0 26.223 0.294 39.556 0.887s26.517 1.186 39.556 1.779c49.182 4.147 88.294 9.186 117.333 15.113 29.035 5.926 56 21.333 80.887 46.221s40.294 51.853 46.221 80.887c5.926 29.039 10.965 68.151 15.113 117.333 0.593 13.039 1.186 26.223 1.779 39.556s0.887 26.517 0.887 39.556c0 13.039-0.294 26.223-0.887 39.556s-1.186 26.517-1.779 39.556c-4.147 49.184-9.186 88.295-15.113 117.332s-21.333 56-46.221 80.889c-24.887 24.889-51.853 40.296-80.887 46.222-29.039 5.926-68.151 10.667-117.333 14.223-13.039 1.185-26.223 2.074-39.556 2.667s-26.517 0.889-39.556 0.889c-13.039 0-26.223-0.296-39.556-0.889s-26.517-1.482-39.556-2.667c-13.628-0.593-26.517-1.482-38.665-2.667s-23.555-2.371-34.222-3.556v-663.11zM701.333 523.554c0-10.074-3.703-18.812-11.11-26.223-7.407-7.407-16.149-11.11-26.223-11.11h-152c-10.667 0-19.703 3.703-27.11 11.11-7.407 7.411-11.11 16.149-11.11 26.223 0 10.668 3.703 19.705 11.11 27.113s16.444 11.111 27.11 11.111h152c10.074 0 18.816-3.704 26.223-11.111s11.11-16.445 11.11-27.113zM625.779 334.221h-75.558c-10.667 0-19.703 3.703-27.11 11.115-7.407 7.407-11.11 16.444-11.11 27.11 0 10.074 3.703 18.812 11.11 26.223 7.407 7.407 16.444 11.11 27.11 11.11h75.558c10.667 0 19.703-3.703 27.11-11.11 7.407-7.411 11.11-16.149 11.11-26.223 0-10.667-3.703-19.703-11.11-27.11-7.407-7.411-16.444-11.115-27.11-11.115zM284.445 760.889c-8.889-4.148-17.482-9.185-25.778-15.111s-16.296-12.741-24-20.445c-24.889-24.889-40.296-51.852-46.222-80.889s-10.667-68.148-14.223-117.332c-1.185-13.039-2.074-26.223-2.667-39.556s-0.889-26.517-0.889-39.556c0-13.039 0.296-26.223 0.889-39.556s1.482-26.517 2.667-39.556c3.556-49.182 8.297-88.294 14.223-117.333 5.926-29.035 21.333-56 46.222-80.887 7.704-8.294 15.704-15.258 24-20.89 8.296-5.628 16.889-10.517 25.778-14.665v625.776z" />
<glyph unicode="&#xe912;" glyph-name="business" d="M512 339.089c26.509 0 48 22.622 48 50.526s-21.491 50.526-48 50.526c-26.509 0-48-22.622-48-50.526s21.491-50.526 48-50.526zM665.557 706.81c0.030 2.056 0.043 4.114 0.043 6.173 0 21.004-1.638 41.241-3.964 59.365-4.164 32.503-6.246 48.754-23.364 67.717-17.122 18.962-32.247 21.94-62.502 27.896-19.558 3.851-41.549 6.705-63.77 6.705s-44.211-2.854-63.774-6.705c-30.25-5.956-45.376-8.934-62.497-27.896s-19.203-35.214-23.367-67.717c-2.322-18.124-3.962-38.361-3.962-59.365 0-2.058 0.014-4.116 0.041-6.173l-2.086-0.177c-78.525-6.725-117.788-10.087-167.745-62.966s-52.702-91.007-58.192-167.263c-1.521-21.129-2.419-43.409-2.419-66.577 0-23.172 0.898-45.453 2.419-66.581 5.49-76.254 8.235-114.381 58.192-167.262 49.957-52.877 89.218-56.239 167.74-62.963 44.254-3.793 96.164-6.353 155.65-6.353 59.465 0 111.36 2.56 155.61 6.349 78.554 6.724 117.833 10.086 167.795 62.976 49.958 52.885 52.702 91.034 58.185 167.33 1.515 21.103 2.411 43.362 2.411 66.505 0 23.138-0.896 45.393-2.411 66.496-5.483 76.3-8.226 114.449-58.185 167.338-49.963 52.889-89.246 56.252-167.804 62.976l-2.044 0.174zM462.349 788.497c16.316 3.212 33.417 5.327 49.651 5.327s33.335-2.115 49.651-5.327c7.953-1.565 13.052-2.581 17.31-3.594 1.382-0.328 2.462-0.609 3.302-0.842 0.196-0.959 0.427-2.216 0.695-3.842 0.755-4.625 1.476-10.142 2.569-18.676 1.963-15.322 3.273-31.88 3.273-48.561l-0.004-1.477c-24.013 0.942-49.613 1.477-76.796 1.477s-52.783-0.535-76.796-1.477l-0.004 1.477c0 16.681 1.31 33.238 3.273 48.561 1.092 8.533 1.813 14.051 2.569 18.676 0.269 1.626 0.499 2.883 0.695 3.842 0.841 0.233 1.92 0.514 3.302 0.842 4.258 1.013 9.357 2.029 17.31 3.594zM216.148 544.701c-4.471-15.072-6.207-33.551-9.149-74.408-1.386-19.251-2.199-39.492-2.199-60.467 0-20.979 0.813-41.22 2.199-60.471 2.942-40.858 4.678-59.337 9.149-74.406 9.105-30.69 38.878-61.090 67.986-70.417 16.313-5.227 36.603-7.356 78.445-10.935 42.201-3.618 92.035-6.089 149.422-6.089 57.37 0 107.187 2.47 149.38 6.084 41.86 3.584 62.165 5.709 78.49 10.94 29.116 9.327 58.889 39.731 67.994 70.434 4.471 15.083 6.208 33.579 9.143 74.453 1.382 19.234 2.193 39.454 2.193 60.407 0 20.949-0.811 41.165-2.193 60.399-2.935 40.879-4.672 59.379-9.143 74.46-9.105 30.702-38.878 61.107-67.998 70.435-16.324 5.23-36.629 7.357-78.49 10.941-42.193 3.612-92.011 6.080-149.376 6.080-57.387 0-107.217-2.47-149.417-6.084-41.844-3.584-62.135-5.711-78.449-10.938-29.109-9.327-58.882-39.727-67.987-70.417z" />
<glyph unicode="&#xe913;" glyph-name="share" d="M633.985 640c37.311 0 60.358 40.703 41.158 72.696l-2.15 3.587c-71.889 119.816-107.834 179.717-160.98 179.717s-89.091-59.901-160.98-179.716l-2.152-3.588c-19.196-31.993 3.85-72.696 41.16-72.696 16.861 0 32.485 8.846 41.16 23.304l2.152 3.587c12.014 20.023 21.266 35.443 30.634 46.709v-345.601c0-26.509 21.49-48 48-48s48 21.491 48 48v345.667c9.386-11.272 18.651-26.713 30.688-46.775l2.152-3.587c8.675-14.458 24.299-23.304 41.16-23.304zM352.744 511.999l-0.208-0.013c-78.941-5.196-118.411-7.794-169.91-61.034s-52.458-83.804-54.375-144.936c-0.164-5.222-0.25-10.522-0.25-15.878 0-5.382 0.087-10.701 0.252-15.949 1.91-60.602 2.865-90.906 54.339-144.128 51.475-53.229 90.717-55.827 169.201-61.018 45.236-2.995 98.669-5.043 160.209-5.043 61.347 0 114.641 2.035 159.788 5.011 78.752 5.197 118.125 7.795 169.619 61.043 51.488 53.242 52.442 83.693 54.342 144.602 0.166 5.21 0.25 10.49 0.25 15.834 0 5.338-0.083 10.618-0.25 15.827-1.901 60.909-2.854 91.364-54.342 144.61-51.494 53.245-90.874 55.843-169.626 61.038l-0.531 0.035v-0.255c-26.195-0.367-47.314-21.687-47.314-47.934v-95.835c0-61.845-50.133-111.976-111.976-111.976s-111.976 50.131-111.976 111.976v95.835c0 26.223-21.082 47.528-47.241 47.933v0.255z" />
<glyph unicode="&#xe914;" glyph-name="clock" horiz-adv-x="964" d="M404.826 925.221c-37.911 0-73.314-18.947-94.342-50.491l-23.013-34.521 0.758 0.156c30.793 6.284 69.693 11.153 115.37 15.005l1.64 0.139 1.645 0.075c11.753 0.534 23.638 1.069 35.656 1.602 13.218 0.588 26.334 0.884 39.346 0.884s26.128-0.296 39.346-0.884c12.018-0.534 23.903-1.068 35.656-1.602l1.645-0.075 1.64-0.139c45.674-3.852 84.574-8.721 115.372-15.005l0.753-0.156-23.010 34.521c-21.028 31.544-56.433 50.491-94.344 50.491h-154.118zM403.598 76.8c-42.33 3.572-78.84 8.017-108.472 13.649l15.358-23.040c21.029-31.539 56.431-50.489 94.342-50.489h154.118c37.911 0 73.315 18.95 94.344 50.489l15.354 23.040c-29.63-5.632-66.138-10.077-108.469-13.649l-1.64-0.139-1.645-0.072c-11.753-0.536-23.638-1.066-35.656-1.602-13.219-0.59-26.334-0.885-39.346-0.885s-26.128 0.295-39.346 0.885c-12.018 0.536-23.903 1.066-35.656 1.602l-1.645 0.072-1.64 0.139zM305.233 757.044c-26.111-5.329-50.358-19.184-72.74-41.565s-36.236-46.628-41.565-72.74c-5.329-26.112-9.858-61.283-13.588-105.512-0.533-11.724-1.066-23.58-1.599-35.571s-0.799-23.847-0.799-35.57c0-11.724 0.266-23.58 0.799-35.57s1.066-23.847 1.599-35.571c3.73-44.231 8.259-79.402 13.588-105.514s19.184-50.357 41.565-72.74c22.382-22.377 46.628-36.232 72.74-41.562s61.282-9.861 105.512-13.589c11.724-0.53 23.58-1.066 35.57-1.596 11.99-0.536 23.847-0.801 35.571-0.801s23.58 0.265 35.57 0.801c11.99 0.53 23.847 1.066 35.571 1.596 44.23 3.729 79.402 8.258 105.514 13.589s50.357 19.185 72.74 41.562c22.377 22.383 36.232 46.628 41.562 72.74s9.861 61.283 13.589 105.514l0.843 18.587h26.19v-18.804c0-23.483 19.034-42.52 42.52-42.52 23.48 0 42.514 19.037 42.514 42.52v122.647c0 23.482-19.034 42.519-42.514 42.519-23.486 0-42.52-19.037-42.52-42.519v-18.805h-25.305l-0.133 3.086c-0.53 11.99-1.060 23.847-1.596 35.571-3.729 44.23-8.258 79.4-13.589 105.512s-19.185 50.358-41.562 72.74c-22.383 22.381-46.628 36.236-72.74 41.565s-61.284 9.858-105.514 13.588c-11.724 0.533-23.58 1.066-35.571 1.599s-23.847 0.799-35.57 0.799c-11.724 0-23.58-0.266-35.571-0.799s-23.847-1.066-35.57-1.599c-44.23-3.73-79.401-8.26-105.512-13.588zM645.795 602.982c15.053-18.023 12.643-44.837-5.379-59.89l-131.277-109.64c-18.024-15.053-44.837-12.645-59.89 5.379s-12.645 44.837 5.378 59.89l131.277 109.64c18.021 15.053 44.837 12.645 59.89-5.379z" />
<glyph unicode="&#xe915;" glyph-name="chart" d="M173.333 527.113c-0.593-13.039-1.185-26.223-1.778-39.556s-0.889-26.517-0.889-39.556c0-13.039 0.296-26.223 0.889-39.556s1.185-26.517 1.778-39.556c4.148-49.182 9.185-88.294 15.111-117.333 5.926-29.035 21.333-56 46.222-80.887s51.852-40.294 80.889-46.221c29.037-5.926 68.148-10.965 117.332-15.113 13.039-0.593 26.223-1.186 39.556-1.779s26.517-0.887 39.556-0.887c13.039 0 26.223 0.294 39.556 0.887s26.517 1.186 39.556 1.779c49.182 4.147 88.294 9.186 117.333 15.113 29.035 5.926 56 21.333 80.887 46.221s40.294 51.853 46.221 80.887c5.926 29.039 10.965 68.151 15.113 117.333 0.593 13.039 1.186 26.223 1.779 39.556s0.887 26.517 0.887 39.556c0 13.039-0.294 26.223-0.887 39.556s-1.186 26.517-1.779 39.556c-4.147 49.184-9.186 88.295-15.113 117.332s-21.333 56-46.221 80.889c-24.887 24.889-51.853 40.296-80.887 46.222-29.039 5.926-68.151 10.667-117.333 14.223-13.039 1.185-26.223 2.074-39.556 2.667s-26.517 0.889-39.556 0.889c-13.039 0-26.223-0.296-39.556-0.889s-26.517-1.482-39.556-2.667c-49.184-3.556-88.295-8.297-117.332-14.223s-56-21.333-80.889-46.222c-24.889-24.889-40.296-51.852-46.222-80.889s-10.963-68.148-15.111-117.332zM720.887 504.887c0-4.74-1.037-9.481-3.11-14.221s-4.89-8.887-8.444-12.446l-60.446-60.442c-8.294-8.299-16.738-16.448-25.331-24.444-8.593-8.004-17.63-15.556-27.11-22.669-5.926-4.74-12.74-8.887-20.446-12.446-7.706-3.554-16.294-5.333-25.779-5.333-10.074 0-18.961 1.779-26.667 5.333-7.701 3.558-14.221 7.706-19.554 12.446-5.333 3.554-10.816 7.556-16.444 12.002-5.632 4.442-11.11 9.331-16.444 14.665l-24 24c-4.151 4.147-7.706 7.113-10.667 8.887v0.892l-0.892-0.892c0.593 0.593-5.333-4.885-17.776-16.444-12.445-11.554-22.519-21.184-30.223-28.89-2.963-3.554-6.074-7.108-9.333-10.667-3.259-3.554-6.667-6.814-10.222-9.775-3.555-3.558-7.704-6.37-12.445-8.444-4.741-2.078-9.481-3.115-14.222-3.115s-9.481 1.037-14.222 3.115c-4.741 2.074-8.889 4.885-12.445 8.444-3.555 3.554-6.371 7.701-8.445 12.442s-3.111 9.485-3.111 14.225c0 4.74 1.037 9.481 3.111 14.221s4.889 8.887 8.445 12.446c11.852 12.442 27.407 27.703 46.667 45.777l28.889 27.11c5.333 4.74 11.852 8.887 19.556 12.446 7.703 3.554 16.593 5.333 26.668 5.333 9.481 0 18.074-1.779 25.775-5.333 7.706-3.558 14.519-7.706 20.446-12.446 4.74-3.554 9.924-8 15.556-13.333 5.628-5.333 11.405-10.961 17.331-16.887 5.333-5.333 10.816-10.522 16.448-15.556 5.628-5.039 11.405-9.63 17.331-13.777l0.887-0.892v0.892c7.706 5.926 15.262 12.147 22.669 18.667 7.407 6.515 14.665 13.333 21.777 20.442l61.333 61.333c3.554 3.557 7.706 6.372 12.446 8.446s9.481 3.111 14.221 3.111c4.74 0 9.481-1.037 14.221-3.111s8.892-4.889 12.446-8.446c3.554-3.554 6.37-7.701 8.444-12.442s3.11-9.485 3.11-14.225z" />
<glyph unicode="&#xe916;" glyph-name="check" d="M841.323 692.072c8.009-8.675 12.011-18.852 12.011-30.53s-4.002-21.855-12.011-30.53l-384.375-384.377c-8.674-8.004-18.854-12.011-30.531-12.011s-21.854 4.006-30.53 12.011l-213.208 213.21c-8.008 8.674-12.012 18.854-12.012 30.532s4.004 21.854 12.012 30.528c8.675 8.009 18.852 12.011 30.53 12.011s21.855-4.002 30.53-12.011l183.18-183.181 353.344 354.348c8.674 8.008 18.85 12.012 30.528 12.012s21.858-4.004 30.532-12.012z" />
<glyph unicode="&#xe917;" glyph-name="checkbox" d="M804.446 649.778c3.554 3.555 6.221 7.703 8 12.444 1.775 4.741 2.667 9.482 2.667 14.223s-0.892 9.333-2.667 13.777c-1.779 4.445-4.446 8.445-8 12-3.558 4.148-7.706 7.111-12.446 8.889s-9.481 2.667-14.221 2.667c-4.74 0-9.335-0.889-13.781-2.667-4.442-1.778-8.444-4.741-11.998-8.889l-240-240.001-106.667 107.557c-3.555 3.555-7.704 6.222-12.445 8s-9.481 2.667-14.222 2.667c-4.741 0-9.481-0.889-14.222-2.667s-8.889-4.445-12.445-8c-3.555-3.556-6.222-7.704-8-12.445s-2.667-9.481-2.667-14.222c0-4.741 0.889-9.333 2.667-13.78 1.778-4.442 4.445-8.444 8-11.998l133.333-134.221c3.554-3.558 7.706-6.225 12.446-8 4.74-1.779 9.481-2.667 14.221-2.667s9.481 0.887 14.221 2.667c4.74 1.775 8.892 4.442 12.446 8l265.779 266.665zM652.446 717.333l0.887 0.889c3.554 3.556 6.221 7.407 8 11.556s2.667 8.593 2.667 13.333c0 7.111-1.779 13.926-5.333 20.444s-8.593 11.556-15.113 15.111c-4.147 1.185-7.701 2.074-10.667 2.667-2.961 0.593-6.814 1.185-11.554 1.778-18.372 1.777-36.297 3.259-53.777 4.444s-36.002 1.778-55.556 1.778c-13.039 0-26.223-0.296-39.556-0.889s-26.517-1.185-39.556-1.778c-49.184-4.148-88.295-9.185-117.332-15.111s-56-21.333-80.889-46.222c-24.889-24.889-40.296-51.852-46.222-80.889s-10.963-68.148-15.111-117.332c-0.593-13.039-1.185-26.223-1.778-39.556s-0.889-26.517-0.889-39.556c0-13.039 0.296-26.223 0.889-39.556s1.185-26.517 1.778-39.556c4.148-49.182 9.185-88.294 15.111-117.333 5.926-29.035 21.333-56 46.222-80.887s51.852-40.294 80.889-46.221c29.037-5.926 68.148-10.965 117.332-15.113 13.039-0.593 26.223-1.186 39.556-1.779s26.517-0.887 39.556-0.887c13.039 0 26.223 0.294 39.556 0.887s26.517 1.186 39.556 1.779c49.182 4.147 88.294 9.186 117.333 15.113 29.035 5.926 56 21.333 80.887 46.221s40.294 51.853 46.221 80.887c5.926 29.039 10.965 68.151 15.113 117.333 0.593 13.039 1.186 26.223 1.779 39.556s0.887 26.517 0.887 39.556c0 7.706-0.149 13.333-0.444 16.887-0.299 3.558-0.444 8.892-0.444 16-0.593 11.853-4.74 21.926-12.446 30.225-7.706 8.294-17.481 12.442-29.333 12.442-10.667 0-19.11-3.998-25.335-11.998-6.221-8-9.331-16.742-9.331-26.223v-1.779c0.593-7.701 1.037-13.628 1.335-17.775 0.294-4.151 0.444-10.074 0.444-17.779 0-12.446-0.299-24.742-0.892-36.89s-1.481-24.149-2.667-35.998c-3.554-52.151-7.552-86.963-11.998-104.444-4.446-17.485-13.184-33.041-26.223-46.669-13.628-13.039-29.184-21.777-46.669-26.223-17.481-4.446-52.292-8.444-104.444-11.998-11.849-1.186-23.851-2.074-35.998-2.667s-24.444-0.892-36.89-0.892c-12.446 0-24.742 0.299-36.89 0.892s-24.149 1.481-35.998 2.667c-52.15 3.554-86.964 7.552-104.446 11.998s-33.037 13.184-46.667 26.223c-13.037 13.628-21.778 29.184-26.222 46.669-4.445 17.481-8.445 52.292-12 104.444-1.185 11.849-2.074 23.851-2.667 35.998s-0.889 24.444-0.889 36.89c0 12.446 0.297 24.742 0.889 36.89s1.481 24.149 2.667 35.998c3.555 52.15 7.555 86.964 12 104.446s13.185 33.037 26.222 46.667c13.629 13.037 29.185 21.778 46.667 26.222s52.296 8.445 104.446 12c11.849 1.185 23.851 2.074 35.998 2.667s24.444 0.889 36.89 0.889c19.554 0 38.076-0.741 55.556-2.223s35.405-3.111 53.777-4.889h0.887c5.926-0.593 11.409 0 16.448 1.778 5.035 1.777 9.626 4.741 13.777 8.889z" />
<glyph unicode="&#xe918;" glyph-name="checkbox-current" d="M234.667 725.333c24.889 24.889 51.852 40.296 80.889 46.222s68.148 10.963 117.332 15.111c13.039 0.593 26.223 1.185 39.556 1.778s26.517 0.889 39.556 0.889c13.039 0 26.223-0.296 39.556-0.889s26.517-1.185 39.556-1.778c49.182-4.148 88.294-9.185 117.333-15.111 29.035-5.926 56-21.333 80.887-46.222s40.294-51.852 46.221-80.889c5.926-29.037 10.965-68.148 15.113-117.332 0.593-13.039 1.186-26.223 1.779-39.556s0.887-26.517 0.887-39.556c0-13.039-0.294-26.223-0.887-39.556s-1.186-26.517-1.779-39.556c-4.147-49.182-9.186-88.294-15.113-117.333-5.926-29.035-21.333-56-46.221-80.887s-51.853-40.294-80.887-46.221c-29.039-5.926-68.151-10.965-117.333-15.113-13.039-0.593-26.223-1.186-39.556-1.779s-26.517-0.887-39.556-0.887c-13.039 0-26.223 0.294-39.556 0.887s-26.517 1.186-39.556 1.779c-49.184 4.147-88.295 9.186-117.332 15.113s-56 21.333-80.889 46.221c-24.889 24.887-40.296 51.853-46.222 80.887-5.926 29.039-10.963 68.151-15.111 117.333-0.593 13.039-1.185 26.223-1.778 39.556s-0.889 26.517-0.889 39.556c0 13.039 0.296 26.223 0.889 39.556s1.185 26.517 1.778 39.556c4.148 49.184 9.185 88.295 15.111 117.332s21.333 56 46.222 80.889zM671.113 515.554c7.701 7.706 11.554 16.742 11.554 27.113s-3.853 19.407-11.554 27.111c-7.113 7.111-15.855 10.667-26.223 10.667-10.372 0-19.409-3.556-27.11-10.667l-144-143.999-48.89 48.887c-7.111 7.706-16 11.554-26.667 11.554s-19.555-3.849-26.667-11.554c-7.703-7.113-11.555-16-11.555-26.667s3.852-19.554 11.555-26.667l75.557-76.446c7.701-7.108 16.738-10.667 27.11-10.667 10.368 0 19.11 3.558 26.223 10.667l170.667 170.667z" />
<glyph unicode="&#xe919;" glyph-name="city" d="M222.667 117.060c5.185-5.329 12.055-8.397 20.611-9.195s20.611-1.199 36.167-1.199h465.11c15.556 0 27.614 0.401 36.169 1.199s15.424 3.866 20.608 9.195c4.668 4.796 7.39 11.588 8.171 20.382 0.777 8.794 1.165 21.449 1.165 37.969v166.272c0 4.262-0.26 8.525-0.777 12.791-1.037 30.908-3.759 56.090-8.166 75.541-4.407 19.447-17.762 40.9-40.055 64.35-14.519 15.454-28.39 26.645-41.613 33.57-13.222 6.929-27.87 11.726-43.942 14.39-2.594 44.765-6.225 80.204-10.893 106.317-4.663 26.113-17.626 50.627-38.886 73.542-21.777 22.915-46.276 37.437-73.502 43.566-27.221 6.128-64.683 11.324-112.388 15.588-25.925 2.132-52.629 3.997-80.111 5.595s-54.444 2.398-80.889 2.398c-15.555 0-27.611-0.4-36.167-1.199s-15.426-3.864-20.611-9.193c-4.666-4.796-7.389-11.591-8.167-20.384s-1.167-21.45-1.167-37.97v-545.176c0-16.521 0.389-29.175 1.167-37.969s3.5-15.586 8.167-20.382zM677.666 448v23.983h0.777c5.188-1.6 10.5-4.13 15.945-7.595s12.058-9.459 19.836-17.988c8.815-8.525 14.775-15.586 17.89-21.184 3.11-5.594 5.184-10.522 6.221-14.788 1.553-5.862 2.722-12.919 3.499-21.18s1.425-20.919 1.946-37.973c0-3.729 0.128-7.458 0.388-11.191 0.26-3.729 0.388-7.458 0.388-11.191v-153.481h-66.889v272.589zM346.333 592.687c0.518 4.796 1.037 8.66 1.556 11.591s2.074 5.463 4.666 7.594c2.074 2.665 4.537 4.263 7.389 4.796s6.87 1.066 12.055 1.599h14.778c5.185-0.533 9.074-1.066 11.667-1.599s5.185-2.132 7.778-4.796c2.593-2.132 4.148-4.663 4.667-7.594s1.037-6.795 1.556-11.591v-15.988c-0.519-4.796-1.037-8.66-1.556-11.591s-2.074-5.729-4.667-8.393c-2.592-2.665-5.185-4.263-7.778-4.796s-6.481-1.066-11.667-1.599h-14.778c-5.185 0.533-9.204 1.066-12.055 1.599s-5.315 2.132-7.389 4.796c-2.592 2.665-4.148 5.462-4.666 8.393s-1.037 6.795-1.556 11.591v15.988zM346.333 455.996c0.518 4.796 1.037 8.657 1.556 11.588s2.074 5.73 4.666 8.393c2.074 2.133 4.537 3.597 7.389 4.399 2.852 0.798 6.87 1.199 12.055 1.199 1.037 0 2.204 0.132 3.5 0.401 1.296 0.265 2.463 0.397 3.5 0.397 1.556 0 2.982-0.132 4.278-0.397 1.296-0.269 2.463-0.401 3.5-0.401 5.185 0 9.074-0.401 11.667-1.199 2.593-0.802 5.185-2.266 7.778-4.399 2.593-2.662 4.148-5.461 4.667-8.393s1.037-6.793 1.556-11.588v-15.991c-0.519-4.796-1.037-8.657-1.556-11.588s-2.074-5.73-4.667-8.393c-2.592-2.133-5.185-3.597-7.778-4.399-2.592-0.798-6.481-1.199-11.667-1.199-1.037 0-2.204-0.132-3.5-0.401-1.296-0.265-2.722-0.397-4.278-0.397-1.037 0-2.204 0.132-3.5 0.397-1.296 0.269-2.463 0.401-3.5 0.401-5.185 0-9.204 0.401-12.055 1.199-2.852 0.802-5.315 2.266-7.389 4.399-2.592 2.662-4.148 5.461-4.666 8.393s-1.037 6.793-1.556 11.588v15.991z" />
<glyph unicode="&#xe91a;" glyph-name="close" d="M268 264.998c-8-8.666-12-18.833-12-30.498s4-21.833 12-30.502c8.667-7.996 18.833-11.998 30.5-11.998s21.833 4.002 30.5 11.998l183 184.004 183.002-184.004c8.666-7.996 18.833-11.998 30.498-11.998s21.833 4.002 30.502 11.998c7.996 8.67 11.998 18.837 11.998 30.502s-4.002 21.833-11.998 30.498l-184.004 183.002 184.004 183c7.996 8.667 11.998 18.833 11.998 30.5s-4.002 21.833-11.998 30.5c-8.67 8-18.837 12-30.502 12s-21.833-4-30.498-12l-183.002-184.002-183 183.002c-8.667 8.667-18.833 13-30.5 13s-21.833-4.333-30.5-13c-8-8-12-17.833-12-29.5s4-21.833 12-30.5l184.002-183-184.002-183.002z" />
<glyph unicode="&#xe91b;" glyph-name="comment" d="M178.441 611.299c-5.092-34.429-7.774-70.179-7.774-106.846 0-36.672 2.682-72.418 7.774-106.85 8.808-59.554 52.901-104.414 108.341-119.027-0.065-4.817-0.227-10.598-0.487-17.357l-2.022-70.797c-0.15-5.79 0.452-11.341 1.807-16.653 1.355-5.316 4.034-9.894 8.038-13.739 2.304-2.253 4.805-4.122 7.503-5.615 2.697-1.489 5.525-2.726 8.485-3.712 14.077-3.866 29.298 0.444 45.664 12.924s38.634 31.97 66.805 58.475l16.638 15.757c9.476 8.802 18.33 17.135 26.56 24.986 15.27-0.401 30.686-0.61 46.229-0.61 71.693 0 140.659 4.373 205.103 12.45 64.627 8.094 118.605 56.32 128.457 122.918 5.090 34.432 7.774 70.178 7.774 106.85 0 36.668-2.684 72.417-7.774 106.846-9.852 66.6-63.829 114.825-128.457 122.921-64.444 8.074-133.41 12.447-205.103 12.447s-140.659-4.373-205.104-12.447c-64.627-8.096-118.605-56.321-128.455-122.921zM304.762 572.445c0 20.619 16.373 37.333 36.571 37.333h316.954c20.198 0 36.57-16.715 36.57-37.333s-16.371-37.333-36.57-37.333h-316.954c-20.198 0-36.571 16.715-36.571 37.333zM304.762 423.113c0 20.617 16.373 37.333 36.571 37.333h146.287c20.198 0 36.57-16.717 36.57-37.333 0-20.621-16.371-37.333-36.57-37.333h-146.287c-20.198 0-36.571 16.713-36.571 37.333z" />
<glyph unicode="&#xe91c;" glyph-name="compass" d="M430.426 366.426c-6.223 6.225-13.874 11.802-22.953 16.73s-21.658 11.285-37.739 19.068l-115.161 56.802c-8.819 4.668-16.859 10.372-24.122 17.118-7.263 6.741-12.191 15.044-14.784 24.9-1.556 5.705-2.334 11.409-2.334 17.118 0 5.705 0.519 11.413 1.556 17.117 6.225 26.975 26.456 48.632 60.693 64.973s84.815 36.182 151.732 59.526l38.908 14.006c45.649 16.6 85.85 30.606 120.606 42.019 34.756 11.931 65.101 20.49 91.038 25.678s47.727 6.484 65.365 3.89c18.155-2.075 33.199-9.078 45.129-21.009s18.935-26.715 21.009-44.352c2.594-18.156 1.297-40.073-3.891-65.751s-13.747-55.895-25.677-90.652c-11.413-34.756-25.417-74.957-42.018-120.606l-14.007-39.684c-23.859-66.918-43.964-117.495-60.301-151.731-16.341-34.24-37.739-54.468-64.196-60.693-5.705-1.037-11.413-1.557-17.118-1.557-5.709 0-11.413 0.777-17.118 2.334-9.856 2.594-18.159 7.522-24.9 14.784-6.746 7.262-12.45 15.565-17.118 24.9l-56.802 114.385c-7.782 16.081-14.14 28.659-19.068 37.739-4.928 9.075-10.505 16.725-16.73 22.95z" />
<glyph unicode="&#xe91d;" glyph-name="contacts" d="M243.495 547.555h-39.215c-9.604 0-17.607 3.241-24.009 9.722s-9.604 14.389-9.604 23.722c0 8.815 3.201 16.463 9.604 22.944s14.406 9.722 24.009 9.722h48.819c3.201 15.037 8.137 28.778 14.806 41.222s16.14 24.37 28.411 35.778c22.409 21.778 46.551 35.259 72.428 40.445s61.225 9.592 106.042 13.222l35.213 1.556c11.738 0.518 23.744 0.778 36.015 0.778 11.738 0 23.607-0.259 35.614-0.778 12.002-0.518 23.607-1.037 34.812-1.556 44.817-3.63 80.299-8.037 106.445-13.222 26.142-5.185 50.419-18.667 72.828-40.445s36.279-45.37 41.617-70.778c5.333-25.408 9.6-59.63 12.804-102.667 1.067-11.409 1.865-22.946 2.398-34.611s0.802-23.202 0.802-34.611c0-11.409-0.269-22.946-0.802-34.611s-1.331-23.202-2.398-34.611c-3.204-43.038-7.471-77.261-12.804-102.665-5.338-25.408-19.209-49.003-41.617-70.78s-46.686-35.26-72.828-40.444c-26.146-5.184-61.628-9.591-106.445-13.222-11.204-0.521-22.81-1.037-34.812-1.557-12.006-0.516-23.876-0.777-35.614-0.777-12.271 0-24.277 0.26-36.015 0.777l-35.213 1.557c-44.817 3.631-80.165 8.038-106.042 13.222s-50.019 18.667-72.428 40.444c-12.271 11.409-21.742 23.334-28.411 35.776-6.67 12.446-11.605 26.189-14.806 41.225h-48.819c-9.604 0-17.607 3.238-24.009 9.724-6.403 6.481-9.604 14.127-9.604 22.942 0 9.335 3.201 17.242 9.604 23.723s14.406 9.724 24.009 9.724h39.215c0 4.663-0.267 9.591-0.8 14.775l-1.601 15.556c-0.533 11.409-1.067 22.946-1.6 34.611s-0.8 23.202-0.8 34.611c0 11.409 0.267 22.946 0.8 34.611s1.067 23.202 1.6 34.611l1.601 15.556c0.533 5.184 0.8 10.11 0.8 14.777zM546.014 630.778c-33.079 0-61.359-11.407-84.834-34.222s-35.213-50.296-35.213-82.444c0-32.149 11.738-59.503 35.213-82.057s51.755-33.835 84.834-33.835c33.079 0 61.222 11.281 84.433 33.835 23.206 22.554 34.812 49.907 34.812 82.057 0 32.147-11.605 59.629-34.812 82.444-23.211 22.815-51.354 34.222-84.433 34.222zM774.903 309.555c-47.488 11.925-86.033 20.873-115.648 26.833-29.611 5.965-57.754 9.724-84.429 11.277-9.604 0.521-19.209 0.781-28.813 0.781s-19.209-0.26-28.813-0.781c-26.675-1.553-54.822-5.312-84.433-11.277-29.611-5.961-68.159-14.908-115.644-26.833 2.134-15.036 5.335-26.445 9.604-34.223s10.137-15.556 17.607-23.334c12.271-11.405 26.277-19.055 42.016-22.942 15.739-3.891 47.087-7.39 94.037-10.5 10.671-1.037 21.474-1.813 32.414-2.334 10.935-0.516 22.007-0.777 33.212-0.777 10.671 0 21.606 0.26 32.811 0.777 11.204 0.521 22.144 1.297 32.815 2.334 46.95 3.11 78.298 6.609 94.037 10.5 15.74 3.887 29.743 11.537 42.014 22.942 7.471 7.778 13.205 15.556 17.207 23.334s7.339 19.187 10.005 34.223z" />
<glyph unicode="&#xe91e;" glyph-name="date" d="M640 369.421c12.224 0 22.639-4.395 31.249-13.18 8.61-8.789 12.919-19.418 12.919-31.889s-4.309-23.1-12.919-31.889c-8.61-8.785-19.025-13.18-31.249-13.18s-22.639 4.395-31.249 13.18c-8.61 8.789-12.919 19.418-12.919 31.889s4.309 23.1 12.919 31.889c8.61 8.785 19.025 13.18 31.249 13.18zM355.833 744.416v51.87c0 9.637 3.472 17.999 10.417 25.085s15.139 10.629 24.584 10.629c10 0 18.472-3.543 25.417-10.629s10.417-15.448 10.417-25.085v-41.666c5.001 0 10.278 0.283 15.834 0.85l16.666 1.701c12.224 0.567 24.585 1.134 37.086 1.701 12.497 0.567 24.858 0.85 37.082 0.85s24.585-0.283 37.082-0.85c12.501-0.567 24.862-1.134 37.086-1.701l16.666-1.701c5.555-0.567 10.833-0.85 15.834-0.85v41.666c0 9.637 3.473 17.999 10.415 25.085 6.946 7.086 15.42 10.629 25.417 10.629 9.446 0 17.643-3.543 24.585-10.629 6.946-7.086 10.419-15.448 10.419-25.085v-51.87c16.111-3.968 30.831-9.353 44.164-16.156s26.112-16.723 38.336-29.762c23.33-23.809 37.777-49.603 43.332-77.38s10.278-65.192 14.165-112.245c0.555-12.471 1.109-25.084 1.668-37.837 0.555-12.757 0.832-25.37 0.832-37.841s-0.277-25.084-0.832-37.841c-0.559-12.753-1.114-25.365-1.668-37.841-3.887-47.049-8.61-84.463-14.165-112.243-5.555-27.776-20.002-53.568-43.332-77.38-23.334-23.808-48.614-38.545-75.836-44.215s-63.889-10.487-109.999-14.455c-12.224-0.567-24.585-1.135-37.086-1.702-12.497-0.567-24.858-0.849-37.082-0.849s-24.585 0.282-37.082 0.849c-12.501 0.567-24.862 1.135-37.086 1.702-46.11 3.968-82.777 8.785-109.999 14.455s-52.5 20.407-75.833 44.215c-23.333 23.812-37.778 49.604-43.334 77.38-5.555 27.78-10.278 65.195-14.167 112.243-0.556 12.476-1.111 25.088-1.667 37.841-0.556 12.757-0.833 25.37-0.833 37.841s0.278 25.084 0.833 37.841c0.556 12.753 1.111 25.365 1.667 37.837 3.889 47.053 8.611 84.468 14.167 112.245s20 53.571 43.334 77.38c12.222 13.039 25 22.959 38.333 29.762s28.055 12.188 44.166 16.156zM675.831 614.315c-9.997 0-18.47 3.543-25.417 10.629-6.942 7.086-10.415 15.731-10.415 25.935v30.612c-5.555 0.567-11.529 0.992-17.916 1.275-6.391 0.284-13.197 0.709-20.416 1.276-11.115 1.134-22.362 1.984-33.754 2.551-11.388 0.567-22.916 0.85-34.581 0.85s-23.194-0.284-34.581-0.85c-11.392-0.567-22.639-1.417-33.754-2.551-7.219-0.567-14.025-0.992-20.416-1.276-6.387-0.283-12.361-0.708-17.916-1.275v-30.612c0-10.204-3.472-18.849-10.417-25.935s-15.417-10.629-25.417-10.629c-9.445 0-17.639 3.543-24.584 10.629s-10.417 15.731-10.417 25.935v17.857c-6.667-2.268-12.5-5.102-17.5-8.503s-10-7.653-15-12.755c-10.555-11.338-18.055-23.384-22.5-36.139s-8.055-35.855-10.833-69.302h486.665c-2.778 33.446-6.387 56.547-10.833 69.302-4.442 12.755-11.942 24.801-22.498 36.139-5.001 5.102-10.001 9.354-15.002 12.755s-10.833 6.236-17.498 8.503v-17.857c0-10.204-3.473-18.849-10.419-25.935-6.942-7.086-15.138-10.629-24.585-10.629zM285 469.76c0-6.238-0.139-12.331-0.417-18.283s-0.416-12.049-0.416-18.283c0-11.904 0.278-23.667 0.833-35.29s1.389-23.1 2.5-34.436c3.334-49.886 7.084-83.191 11.25-99.917 4.167-16.721 12.361-31.603 24.583-44.642 12.778-12.471 27.361-20.834 43.75-25.084 16.389-4.254 49.027-8.077 97.915-11.482 11.115-1.131 22.362-1.984 33.754-2.547 11.388-0.567 22.916-0.853 34.581-0.853s23.194 0.286 34.581 0.853c11.392 0.563 22.639 1.417 33.754 2.547 48.887 3.405 81.527 7.228 97.916 11.482 16.388 4.25 30.972 12.612 43.75 25.084 12.22 13.039 20.416 27.921 24.58 44.642 4.169 16.725 7.919 50.031 11.251 99.917 1.114 11.337 1.946 22.814 2.5 34.436s0.832 23.386 0.832 35.29c0 6.234-0.137 12.331-0.414 18.283s-0.418 12.045-0.418 18.283h-496.666z" />
<glyph unicode="&#xe91f;" glyph-name="date-current" d="M793.335 698.498c23.33-23.809 37.777-49.603 43.332-77.38s10.278-65.192 14.165-112.245c0.555-12.471 1.109-25.084 1.668-37.837 0.555-12.757 0.832-25.37 0.832-37.841s-0.277-25.084-0.832-37.841c-0.559-12.753-1.114-25.365-1.668-37.841-3.887-47.049-8.61-84.463-14.165-112.243-5.555-27.776-20.002-53.568-43.332-77.38-23.334-23.808-48.614-38.545-75.836-44.215s-63.889-10.487-109.999-14.455l-36.668-1.702c-12.224-0.567-24.721-0.849-37.5-0.849-12.224 0-24.585 0.282-37.082 0.849-12.501 0.567-24.862 1.135-37.086 1.702-46.11 3.968-82.777 8.785-109.999 14.455s-52.5 20.407-75.833 44.215c-23.333 23.812-37.778 49.604-43.334 77.38-5.555 27.78-10 65.195-13.333 112.243-1.111 12.476-1.944 25.088-2.5 37.841-0.556 12.757-0.833 25.37-0.833 37.841s0.278 25.084 0.833 37.841c0.556 12.753 1.389 25.365 2.5 37.837 3.334 47.053 7.778 84.468 13.333 112.245s20 53.571 43.334 77.38c12.778 13.039 25.694 22.959 38.75 29.762s27.639 12.188 43.75 16.156v51.87c0 9.637 3.472 17.999 10.417 25.085s15.139 10.629 24.584 10.629c10 0 18.472-3.543 25.417-10.629s10.417-15.448 10.417-25.085v-41.666c5.001 0 10.278 0.283 15.834 0.85l16.666 1.701c12.224 0.567 24.585 1.134 37.086 1.701 12.497 0.567 24.858 0.85 37.082 0.85 12.779 0 25.276-0.283 37.5-0.85l36.668-1.701 16.666-1.701c5.555-0.567 10.833-0.85 15.834-0.85v41.666c0 9.637 3.473 17.999 10.415 25.085 6.946 7.086 15.42 10.629 25.417 10.629 9.446 0 17.643-3.543 24.585-10.629 6.946-7.086 10.419-15.448 10.419-25.085v-51.87c16.111-3.968 30.831-9.353 44.164-16.156s26.112-16.723 38.336-29.762zM320 542.037c-10 0-18.472-3.543-25.417-10.628-6.944-7.087-10.417-15.731-10.417-25.937 0-9.638 3.472-17.997 10.417-25.084s15.416-10.628 25.417-10.628h426.667c10.001 0 18.47 3.541 25.417 10.628s10.415 15.445 10.415 25.084c0 10.206-3.469 18.85-10.415 25.937-6.946 7.085-15.415 10.628-25.417 10.628h-426.667zM640 273.331c13.888 0 25.694 4.962 35.418 14.882 9.719 9.92 14.583 21.965 14.583 36.139s-4.864 26.219-14.583 36.139c-9.724 9.92-21.53 14.882-35.418 14.882s-25.694-4.962-35.418-14.882c-9.719-9.92-14.583-21.965-14.583-36.139s4.864-26.219 14.583-36.139c9.724-9.92 21.53-14.882 35.418-14.882z" />
<glyph unicode="&#xe920;" glyph-name="delete" d="M777.22 687.013h-132.22c0 3.731-0.132 7.461-0.388 11.191-0.26 3.73-0.649 7.461-1.169 11.191-1.553 12.257-3.238 22.116-5.056 29.577-1.813 7.461-6.869 15.188-15.164 23.182-7.778 8.527-15.689 13.989-23.723 16.387-8.038 2.398-19.055 4.397-33.058 5.996-8.294 1.599-17.109 2.798-26.445 3.597-9.331 0.799-18.667 1.199-27.998 1.199-9.335 0-18.667-0.4-27.998-1.199-9.335-0.8-18.15-1.999-26.445-3.597-14.003-1.599-25.020-3.597-33.057-5.996s-15.945-7.86-23.722-16.387c-8.297-7.994-13.352-15.721-15.167-23.182s-3.5-17.32-5.056-29.577c-0.518-3.73-0.908-7.461-1.167-11.191s-0.389-7.461-0.389-11.191h-132.222c-9.333 0-17.241-3.331-23.722-9.992s-9.722-14.788-9.722-24.381c0-9.592 3.241-17.719 9.722-24.381s14.389-9.992 23.722-9.992h8.556c-0.518-4.796-1.037-9.859-1.555-15.188s-1.037-10.925-1.556-16.787c-1.556-19.718-2.852-41.035-3.889-63.95-1.037-22.916-1.556-47.697-1.556-74.342s0.519-51.426 1.556-74.342c1.037-22.916 2.333-44.233 3.889-63.949 2.592-34.641 6.481-62.353 11.667-83.136s18.407-42.368 39.666-64.751c21.778-21.85 42.519-35.302 62.223-40.367s45.629-8.926 77.776-11.593c10.372-1.062 21.389-1.865 33.058-2.398 11.665-0.533 23.462-0.798 35.388-0.798s23.723 0.265 35.388 0.798c11.669 0.533 22.686 1.335 33.058 2.398 32.145 2.667 58.074 6.528 77.777 11.593s40.444 18.517 62.221 40.367c21.261 22.383 34.483 43.968 39.667 64.751s9.075 48.495 11.665 83.136c1.557 19.716 2.854 41.033 3.891 63.949s1.553 47.697 1.553 74.342c0 26.645-0.516 51.426-1.553 74.342s-2.334 44.232-3.891 63.95c-0.516 5.862-1.037 11.458-1.553 16.787-0.521 5.329-1.037 10.392-1.557 15.188h8.555c9.335 0 17.242 3.331 23.723 9.992s9.724 14.789 9.724 24.381c0 9.593-3.243 17.719-9.724 24.381s-14.387 9.992-23.723 9.992zM466.112 717.39c7.778 1.066 15.424 1.865 22.942 2.398 7.522 0.533 15.168 0.8 22.946 0.8s15.424-0.267 22.946-0.8c7.518-0.533 15.164-1.332 22.942-2.398 3.11-0.533 5.965-0.933 8.555-1.199 2.594-0.266 4.928-0.666 7.002-1.199 0.521 0 1.037-0.133 1.557-0.4l0.777-0.399c0.516-1.066 0.909-2.665 1.165-4.797 0.26-2.132 0.388-4.529 0.388-7.194 0.521-2.665 0.781-5.329 0.781-7.994v-7.194h-132.224v7.194c0 2.665 0.26 5.329 0.781 7.994 0 2.665 0.128 5.062 0.388 7.194 0.256 2.132 0.649 3.731 1.165 4.797l0.777 0.399c0.521 0.267 1.037 0.4 1.557 0.4 2.074 0.533 4.407 0.933 7.002 1.199 2.59 0.267 5.444 0.666 8.555 1.199zM445.888 482.372c8.815 0 16.465-3.328 22.946-9.993 6.481-6.66 9.719-14.788 9.719-24.38v-136.691c0-9.062-3.238-16.922-9.719-23.582-6.481-6.665-14.131-9.993-22.946-9.993-9.331 0-17.242 3.328-23.721 9.993-6.481 6.66-9.722 14.519-9.722 23.582v136.691c0 9.591 3.241 17.719 9.722 24.38 6.48 6.665 14.39 9.993 23.721 9.993zM578.112 482.372c9.331 0 17.242-3.328 23.723-9.993 6.481-6.66 9.719-14.788 9.719-24.38v-136.691c0-9.062-3.238-16.922-9.719-23.582-6.481-6.665-14.391-9.993-23.723-9.993-8.815 0-16.465 3.328-22.946 9.993-6.481 6.66-9.719 14.519-9.719 23.582v136.691c0 9.591 3.238 17.719 9.719 24.38 6.481 6.665 14.131 9.993 22.946 9.993z" />
<glyph unicode="&#xe921;" glyph-name="dots" d="M214.167 484.39c0.556 9.037 1.528 16.316 2.917 21.837s4.583 10.543 9.583 15.057c5 5.022 10.556 8.034 16.666 9.037s14.445 2.010 25 3.012h32.5c10.556-1.003 18.75-2.010 24.583-3.012s11.528-4.015 17.083-9.037c5-4.514 8.195-9.536 9.583-15.057s2.361-12.8 2.917-21.837c0-2.509 0.139-5.018 0.417-7.526 0.278-2.513 0.416-5.022 0.416-7.531s-0.139-5.018-0.416-7.531c-0.278-2.509-0.417-5.018-0.417-7.526-0.556-9.037-1.527-16.316-2.917-21.837s-4.583-10.543-9.583-15.057c-5.555-5.022-11.25-8.034-17.083-9.037s-14.028-2.010-24.583-3.012h-32.5c-10.555 1.003-18.889 2.010-25 3.012s-11.666 4.015-16.666 9.037c-5 4.514-8.195 9.536-9.583 15.057s-2.361 12.8-2.917 21.837c-0.556 2.509-0.833 5.018-0.833 7.526v15.061c0 2.509 0.278 5.018 0.833 7.526zM462.498 484.39c1.114 9.037 2.223 16.316 3.337 21.837 1.109 5.521 4.442 10.543 9.997 15.057 5.001 5.022 10.556 8.034 16.67 9.037 6.11 1.003 14.165 2.010 24.166 3.012h33.331c10.001-1.003 18.057-2.010 24.166-3.012 6.114-1.003 11.669-4.015 16.67-9.037 5.555-4.514 8.887-9.536 9.997-15.057 1.114-5.521 2.223-12.8 3.337-21.837v-30.114c-1.114-9.037-2.223-16.316-3.337-21.837-1.109-5.521-4.442-10.543-9.997-15.057-5.001-5.022-10.556-8.034-16.67-9.037-6.11-1.003-14.165-2.010-24.166-3.012h-33.331c-10.001 1.003-18.057 2.010-24.166 3.012-6.114 1.003-11.669 4.015-16.67 9.037-5.555 4.514-8.887 9.536-9.997 15.057-1.114 5.521-2.223 12.8-3.337 21.837v30.114zM724.169 521.284c-5.001-4.514-8.196-9.536-9.587-15.057-1.387-5.521-2.359-12.8-2.914-21.837 0-2.509-0.141-5.018-0.418-7.526-0.277-2.513-0.414-5.022-0.414-7.531s0.137-5.018 0.414-7.531c0.277-2.509 0.418-5.018 0.418-7.526 0.555-9.037 1.527-16.316 2.914-21.837 1.391-5.521 4.587-10.543 9.587-15.057 5.555-5.022 11.247-8.034 17.079-9.037 5.837-1.003 14.029-2.010 24.585-3.012h32.499c10.556 1.003 18.889 2.010 25.003 3.012 6.11 1.003 11.665 4.015 16.666 9.037 5.001 4.514 8.196 9.536 9.583 15.057 1.391 5.521 2.359 12.8 2.918 21.837 0.555 2.509 0.832 5.018 0.832 7.526v15.061c0 2.509-0.277 5.018-0.832 7.526-0.559 9.037-1.527 16.316-2.918 21.837-1.387 5.521-4.582 10.543-9.583 15.057-5.001 5.022-10.556 8.034-16.666 9.037-6.114 1.003-14.447 2.010-25.003 3.012h-32.499c-10.556-1.003-18.748-2.010-24.585-3.012-5.833-1.003-11.524-4.015-17.079-9.037z" />
<glyph unicode="&#xe922;" glyph-name="download" d="M246.778 216.41c-9.333 0-17.241-3.285-23.722-9.865-6.481-6.575-9.722-14.336-9.722-23.279 0-9.468 3.241-17.493 9.722-24.068s14.389-9.865 23.722-9.865h530.443c9.335 0 17.242 3.29 23.723 9.865s9.724 14.601 9.724 24.068c0 8.943-3.243 16.704-9.724 23.279-6.481 6.579-14.387 9.865-23.723 9.865h-530.443zM478.554 383.71v371.69c0 9.469 3.243 17.492 9.724 24.069s14.387 9.865 23.723 9.865c9.331 0 17.242-3.288 23.723-9.865s9.724-14.599 9.724-24.069v-371.69c2.59 3.682 5.572 7.629 8.943 11.84 3.371 4.207 7.13 8.943 11.277 14.204 8.299 10.522 15.817 20.122 22.558 28.804 6.737 8.678 12.702 16.704 17.886 24.068 5.188 6.839 10.633 12.493 16.333 16.964 5.705 4.476 13.222 6.711 22.558 6.711 3.631 0 7.39-0.922 11.277-2.765 3.891-1.839 7.13-4.339 9.724-7.497 4.668-4.736 7.39-11.046 8.166-18.94 0.777-7.889-2.206-16.572-8.947-26.039-6.221-8.947-13.35-18.547-21.389-28.804-8.034-10.261-16.721-21.705-26.052-34.33-18.667-23.676-33.446-41.694-44.335-54.059-10.889-12.361-22.037-20.646-33.446-24.858-8.811-3.153-18.018-4.732-27.61-4.732s-19.055 1.579-28.386 4.732c-11.409 4.211-22.558 12.497-33.446 24.858-10.889 12.365-25.667 30.383-44.334 54.059-9.333 12.625-18.019 24.068-26.055 34.33-8.037 10.257-15.167 19.857-21.389 28.804-6.74 9.468-9.722 18.15-8.944 26.039 0.778 7.893 3.5 14.204 8.166 18.94 2.593 3.157 5.833 5.658 9.722 7.497 3.889 1.843 7.648 2.765 11.278 2.765 9.333 0 16.982-2.236 22.944-6.711 5.963-4.471 11.278-10.125 15.945-16.964 5.185-7.364 11.15-15.39 17.887-24.068 6.741-8.683 14.259-18.283 22.558-28.804 4.147-5.261 7.906-9.997 11.277-14.204 3.371-4.211 6.353-8.158 8.943-11.84z" />
<glyph unicode="&#xe923;" glyph-name="edit" d="M598.302 709.243c13.478 11.921 24.495 20.863 33.045 26.824 8.555 5.961 18.274 9.46 29.158 10.496 10.884 0.518 20.215-0.907 27.989-4.276s17.882-8.941 30.323-16.716c6.737-4.146 13.474-8.812 20.215-13.995 6.737-5.183 13.218-10.885 19.435-17.105 6.221-6.22 11.925-12.699 17.105-19.438 5.184-6.738 9.852-13.477 13.999-20.215 7.774-12.44 13.346-22.548 16.713-30.323 3.371-7.775 4.796-17.105 4.279-27.99-1.037-10.885-4.535-20.604-10.496-29.156s-14.903-19.567-26.825-33.044c-5.705-6.739-11.921-13.997-18.662-21.771-6.737-7.774-13.734-15.808-20.992-24.102l-181.158 181.159c8.294 7.257 16.329 14.255 24.102 20.993s15.031 12.958 21.769 18.66zM503.45 624.495c-10.368-9.33-20.604-18.79-30.711-28.379s-19.827-19.049-29.158-28.379c-24.88-24.88-50.019-51.444-75.418-79.694s-47.428-53.261-66.088-75.029c-5.183-5.7-9.719-10.884-13.606-15.552-3.887-4.663-7.386-9.071-10.496-13.218-5.183-6.737-9.978-16.457-14.384-29.154s-9.719-28.638-15.939-47.817l-17.105-58.313c-7.775-25.916-13.088-46.003-15.939-60.258s-0.907-25.011 5.831-32.265c7.257-6.741 18.012-8.683 32.266-5.833s34.34 8.162 60.257 15.94l58.313 17.105c20.215 6.217 36.802 11.661 49.76 16.324 12.96 4.668 22.807 10.108 29.545 16.329 3.631 2.594 7.646 5.705 12.053 9.331 4.403 3.627 9.199 7.774 14.383 12.442 21.769 18.658 46.78 40.687 75.029 66.086s54.814 50.799 79.693 76.194c9.331 9.331 18.79 18.923 28.382 28.77 9.587 9.847 19.046 19.955 28.378 30.323l-185.045 185.045z" />
<glyph unicode="&#xe924;" glyph-name="exit" d="M666.509 360.418c0-13.892 6.033-24.307 18.099-31.253 12.066-6.942 23.991-6.805 35.776 0.418l10.099 5.833c50.505 30.003 88.384 54.306 113.638 72.917 25.25 18.611 37.879 39.027 37.879 61.252 0 22.221-12.629 42.637-37.879 61.248-25.254 18.611-63.134 42.917-113.638 72.917l-10.099 5.833c-11.785 7.222-23.71 7.361-35.776 0.417s-18.099-17.361-18.099-31.25c0-6.111 1.545-11.805 4.629-17.083 3.089-5.278 7.155-9.583 12.207-12.916l10.099-5.833c12.348-7.778 23.71-14.72 34.095-20.835 10.381-6.11 19.78-11.665 28.198-16.666h-304.717c-10.103 0-18.662-3.473-25.675-10.415-7.015-6.946-10.522-15.42-10.522-25.417 0-10.001 3.507-18.475 10.522-25.417 7.013-6.946 15.572-10.419 25.675-10.419h304.717c-8.418-5.001-17.818-10.556-28.198-16.666-10.385-6.11-21.747-13.056-34.095-20.834l-10.099-5.833c-5.052-3.332-9.118-7.637-12.207-12.915-3.085-5.278-4.629-10.974-4.629-17.084zM594.116 593.75c-0.559 10-1.122 19.305-1.681 27.916-0.563 8.611-1.404 17.083-2.526 25.417-1.122 13.333-2.526 24.305-4.207 32.916-1.685 8.611-6.174 19.305-13.47 32.083-3.93 7.778-11.785 17.639-23.569 29.583s-21.606 20.139-29.461 24.583c-12.348 7.223-22.165 11.806-29.461 13.75s-15.996 3.75-26.095 5.417c-10.099 1.111-20.625 2.083-31.565 2.917-10.944 0.833-22.028 1.25-33.251 1.25-11.785 0-23.148-0.417-34.091-1.25s-21.465-1.806-31.566-2.917c-10.101-1.667-18.659-3.472-25.673-5.417s-16.695-6.528-29.041-13.75c-7.857-4.444-17.677-12.639-29.462-24.583s-19.641-21.806-23.569-29.583c-6.734-12.778-11.084-23.472-13.047-32.083s-3.507-19.583-4.63-32.916c-2.245-22.778-4.209-48.889-5.892-78.333s-2.525-62.502-2.525-99.165c0-36.668 0.841-69.726 2.525-99.17s3.648-55.552 5.892-78.332c1.123-13.333 2.666-24.307 4.63-32.917s6.313-19.307 13.047-32.081c3.928-7.778 11.785-17.638 23.569-29.585 11.785-11.942 21.605-20.139 29.462-24.585 12.346-7.219 22.026-11.806 29.041-13.747 7.014-1.946 15.572-3.75 25.673-5.419 10.101-1.109 20.623-2.082 31.566-2.914 10.943-0.836 22.307-1.25 34.091-1.25s23.148 0.414 34.092 1.25c10.944 0.832 21.466 1.805 31.565 2.914 10.103 1.668 18.658 3.473 25.677 5.419 7.014 1.941 16.691 6.528 29.039 13.747 7.855 4.446 17.677 12.642 29.461 24.585 11.785 11.947 19.639 21.807 23.569 29.585 6.733 12.774 11.085 23.471 13.047 32.081s3.507 19.584 4.629 32.917c1.122 7.778 1.963 16.111 2.526 24.998 0.559 8.892 1.122 18.334 1.681 28.335 0 9.446-3.507 17.638-10.522 24.585-7.014 6.942-15.292 10.415-24.832 10.415h-107.742c-25.254 0-46.579 8.751-63.975 26.249-17.396 17.502-26.095 38.473-26.095 62.921 0 24.444 8.698 45.414 26.095 62.916 17.396 17.498 38.721 26.249 63.975 26.249h107.742c9.54 0 17.818 3.472 24.832 10.417s10.522 15.139 10.522 24.584z" />
<glyph unicode="&#xe925;" glyph-name="eye" d="M478.485 469.333c0 14.426 5.389 26.906 16.158 37.449 10.769 10.539 23.526 15.808 38.263 15.808 14.741 0 27.494-5.269 38.268-15.808 10.769-10.543 16.154-23.023 16.154-37.449s-5.244-26.906-15.731-37.449c-10.487-10.539-23.381-15.808-38.69-15.808-14.737 0-27.494 5.269-38.263 15.808-10.769 10.543-16.158 23.023-16.158 37.449zM477.636 701.504c11.904 1.664 30.327 2.496 55.27 2.496s43.366-0.832 55.275-2.496c37.982-6.657 67.315-15.672 88.009-27.045 20.689-11.372 45.491-27.322 74.402-47.849 16.439-12.205 32.030-24.548 46.771-37.031 14.737-12.482 28.343-24.548 40.815-36.198 19.273-17.753 33.728-32.455 43.366-44.103 9.638-11.652 14.455-24.964 14.455-39.945s-4.817-28.292-14.455-39.945c-9.638-11.648-24.094-26.351-43.366-44.105-12.471-11.648-26.078-23.714-40.815-36.198-14.741-12.48-30.332-24.823-46.771-37.030-28.911-20.527-53.713-36.476-74.402-47.846-20.693-11.375-50.027-20.39-88.009-27.046-11.908-1.664-30.332-2.496-55.275-2.496s-43.366 0.832-55.27 2.496c-37.982 6.656-67.318 15.671-88.009 27.046-20.692 11.371-45.21 27.319-73.554 47.846-16.439 12.207-32.171 24.55-47.193 37.030-15.023 12.484-28.77 24.55-41.241 36.198-19.274 17.754-33.588 32.457-42.942 44.105-9.354 11.652-14.031 24.964-14.031 39.945s4.677 28.292 14.031 39.945c9.354 11.648 23.668 26.35 42.942 44.103 12.471 11.65 26.219 23.716 41.241 36.198s30.754 24.826 47.193 37.031c28.344 20.527 52.862 36.476 73.554 47.849s50.027 20.388 88.009 27.045zM532.907 593.324c-35.145 0-65.050-12.066-89.707-36.199-24.661-24.133-36.991-53.398-36.991-87.792s12.33-63.659 36.991-87.791c24.657-24.132 54.562-36.198 89.707-36.198 35.149 0 65.054 12.066 89.711 36.198 24.661 24.132 36.992 53.397 36.992 87.791s-12.331 63.659-36.992 87.792c-24.657 24.133-54.562 36.199-89.711 36.199z" />
<glyph unicode="&#xe926;" glyph-name="filter" d="M349.544 746.667c-25.388-0.519-45.336-1.815-59.843-3.891s-26.683-5.446-36.528-10.115c-4.663-2.075-9.326-5.058-13.989-8.948s-8.29-7.911-10.881-12.061c-6.735-9.337-11.269-19.712-13.601-31.124s-1.684-22.825 1.943-34.237c1.554-4.669 4.145-10.375 7.772-17.119s7.772-13.228 12.435-19.453c5.181-6.225 11.010-12.839 17.487-19.842s16.45-17.508 29.922-31.514c15.025-15.044 27.72-27.496 38.082-37.352s23.575-21.786 39.636-35.793l17.098-14.784v-92.595c0-46.165 0.129-76.514 0.388-91.038s0.648-27.234 1.166-38.127c1.036-26.978 3.756-47.339 8.16-61.082 4.404-13.747 11.528-23.735 21.373-29.961 2.591-2.074 5.311-3.631 8.16-4.668s5.829-2.074 8.939-3.11c3.106-0.521 7.121-0.649 12.045-0.393 4.924 0.26 9.455 0.909 13.602 1.946 11.917 2.594 26.035 8.303 42.355 17.118 16.32 8.819 42.099 24.124 77.329 45.909 18.654 11.934 31.607 20.361 38.861 25.289s12.693 9.468 16.32 13.619c5.184 5.188 8.939 11.021 11.268 17.506 2.334 6.485 4.019 15.433 5.052 26.846v172.74l10.884 8.559c15.543 13.491 27.977 24.512 37.303 33.071s20.207 19.324 32.64 32.293c13.474 12.969 24.614 23.992 33.421 33.070s15.804 16.989 20.983 23.733c8.29 9.856 14.767 18.804 19.43 26.845s8.030 15.952 10.103 23.733c3.11 12.45 2.202 25.807-2.722 40.073-4.919 14.265-12.561 25.289-22.925 33.070-8.29 6.225-18.266 10.894-29.922 14.006s-27.588 5.447-47.795 7.003c-2.074 0-6.089 0.13-12.049 0.389-5.956 0.259-12.045 0.389-18.261 0.389h-325.644z" />
<glyph unicode="&#xe927;" glyph-name="filter-out" d="M349.417 746.42c-50.31-0.806-77.025-4.655-96.403-13.892-9.668-4.608-19.361-12.724-24.975-20.911-13.119-19.128-18.575-43.002-11.757-65.45 3.001-9.879 11.203-24.37 20.646-36.475 10.074-12.913 19.871-23.616 47.035-51.384 29.92-30.586 46.018-45.724 77.716-73.086l17.535-15.138 0.005-92.147c0.005-92.864 0.128-107.465 1.090-129.643 2.302-53.082 10.472-78.289 29.507-91.038 5.303-3.55 10.986-5.905 17.369-7.202 6.259-1.271 17.681-0.819 25.335 1.003 23.906 5.687 49.843 19.341 119.974 63.159 37.794 23.612 47.689 30.528 55.543 38.805 10.543 11.11 14.494 22.217 15.893 44.646 0.333 5.342 0.546 40.397 0.546 90.594l0.004 81.882 10.415 8.934c31.59 27.093 45.235 39.633 70.528 64.806 26.313 26.185 43.281 44.042 54.054 56.873 16.802 20.014 25.506 35.001 29.423 50.659 6.374 25.471-5.018 57.745-25.758 73.39-16.444 12.407-37.312 17.967-77.487 20.648-4.497 0.3-18.022 0.675-30.063 0.833-31.915 0.42-301.383 0.529-326.176 0.133zM678.758 679.953c31.253-0.876 48.909-2.616 59.371-5.852 3.405-1.052 3.503-1.134 4.749-3.959 0.7-1.586 1.276-3.314 1.276-3.841 0-1.239-4.45-8.642-8.269-13.754-7.812-10.459-16.324-19.816-41.788-45.936-33.638-34.505-52.625-51.96-101.828-93.593l-13.973-11.827-0.265-101.943c-0.213-83.183-0.393-102.101-0.956-102.784-1.771-2.133-49.429-32.273-80.785-51.093-26.155-15.693-46.080-26.167-47.006-24.704-0.243 0.384-0.448 0.913-0.452 1.178s-0.358 3.951-0.789 8.188c-1.954 19.298-2.031 24.111-2.338 148.407l-0.307 122.748-10.812 9.182c-52.214 44.345-62.787 53.924-93.343 84.569-30.776 30.865-44.55 45.716-53.433 57.609-4.003 5.359-8.27 12.537-8.264 13.901 0.003 0.607 0.578 2.336 1.279 3.843 1.234 2.654 1.385 2.772 4.873 3.857 10.351 3.216 34.185 5.418 64.774 5.983 21.379 0.396 313.486 0.236 328.287-0.178z" />
<glyph unicode="&#xe928;" glyph-name="flag" d="M256 567.799c0 34.669 0.813 61.618 2.44 80.849s7.591 33.45 17.893 42.659c10.844 9.209 26.296 13.407 46.358 12.594s48.527-3.386 85.396-7.719c20.061-2.708 40.801-4.875 62.216-6.5 21.419-1.625 42.428-2.438 63.031-2.438s41.613 0.812 63.031 2.438c21.414 1.625 42.155 3.792 62.217 6.5 36.868 4.334 65.335 6.907 85.397 7.719 20.058 0.813 35.511-3.386 46.357-12.594 10.3-9.209 16.265-23.429 17.89-42.659s2.441-46.18 2.441-80.849v-146.26c0-23.834-0.542-42.522-1.626-56.064s-5.423-24.649-13.013-33.314c-7.049-8.67-16.806-14.626-29.278-17.877s-30.093-6.502-52.864-9.754c-26.569-4.331-55.846-8.26-87.838-11.78-31.987-3.52-62.895-5.282-92.715-5.282s-60.727 1.762-92.715 5.282c-31.991 3.52-61.269 7.45-87.837 11.78-5.422 0.542-10.302 1.22-14.639 2.035-4.337 0.811-8.675 1.758-13.013 2.842v-125.943c0-9.212-3.389-17.199-10.166-23.97s-15.046-10.159-24.805-10.159c-9.217 0-17.215 3.388-23.992 10.159s-10.166 14.758-10.166 23.97v384.336z" />
<glyph unicode="&#xe929;" glyph-name="geo" d="M680.538 221.777l36.599 43.964c8.674 10.658 15.454 19.055 20.335 25.182 4.877 6.127 9.216 11.857 13.009 17.186 16.811 24.516 30.366 50.893 40.666 79.138 10.304 28.245 16.538 57.289 18.705 87.134 0.542 6.396 0.815 13.589 0.815 21.581v31.974c0 8.528-0.273 17.188-0.815 25.981s-1.084 17.719-1.626 26.779c-2.709 29.843-8.132 56.223-16.265 79.138s-19.657 42.5-34.564 58.754c-14.912 16.254-33.481 29.444-55.714 39.569-21.687 10.126-47.71 17.853-78.076 23.182-14.639 2.132-29.547 3.997-44.732 5.595-15.181 1.599-30.362 2.398-45.542 2.398s-30.362-0.8-45.542-2.398c-15.185-1.599-30.093-3.464-44.732-5.595-30.365-5.329-56.39-13.056-78.078-23.182-22.23-10.125-40.8-23.315-55.711-39.569s-26.432-35.839-34.565-58.754c-8.133-22.915-13.555-49.295-16.266-79.138-0.542-9.059-1.084-17.986-1.626-26.779s-0.813-17.453-0.813-25.981v-35.17c0-6.396 0.271-12.523 0.813-18.385 2.169-29.845 8.404-58.889 18.706-87.134s23.857-54.622 40.665-79.138c3.795-5.329 8.133-11.059 13.012-17.186s11.657-14.524 20.332-25.182l36.598-43.964c27.652-34.108 49.884-59.955 66.69-77.538 16.806-17.587 33.886-28.779 51.238-33.574 9.758-2.667 19.52-3.998 29.278-3.998s19.52 1.331 29.278 3.998c17.353 4.796 34.432 15.987 51.238 33.574 16.806 17.583 39.040 43.43 66.688 77.538zM516.254 600.681c2.709 0.533 5.559 0.8 8.542 0.8h17.075c2.982 0 5.833-0.267 8.542-0.8h2.441c9.216-0.533 17.89-1.732 26.022-3.597 8.137-1.865 15.727-6.262 22.775-13.19 7.59-7.461 12.198-15.188 13.824-23.182s2.982-16.254 4.066-24.781v-2.398c0-3.199 0.137-6.13 0.41-8.793 0.269-2.667 0.405-5.598 0.405-8.794 0-2.662-0.137-5.461-0.405-8.393-0.273-2.931-0.41-5.73-0.41-8.393v-2.398c-1.084-9.062-2.441-17.587-4.066-25.583-1.626-7.991-6.234-15.454-13.824-22.383-7.049-7.458-14.639-11.989-22.775-13.589-8.132-1.596-16.806-2.662-26.022-3.196l-2.441-0.798h-34.159l-2.441 0.798c-9.216 0.533-17.89 1.6-26.022 3.196-8.137 1.6-15.727 6.131-22.775 13.589-7.59 6.929-12.198 14.391-13.824 22.383-1.626 7.996-2.982 16.521-4.066 25.583v2.398c0 2.662-0.137 5.461-0.41 8.393-0.269 2.931-0.405 5.73-0.405 8.393 0 3.196 0.137 6.127 0.405 8.794 0.273 2.662 0.41 5.594 0.41 8.793v2.398c1.084 8.527 2.441 16.787 4.066 24.781s6.234 15.721 13.824 23.182c7.049 6.928 14.639 11.325 22.775 13.19 8.132 1.865 16.806 3.064 26.022 3.597h2.441z" />
<glyph unicode="&#xe92a;" glyph-name="home" d="M533.333 746.667c-13.517 0-25.873-2.72-37.060-8.158s-21.909-12.415-32.166-20.928c-9.323-8.040-19.345-17.854-30.067-29.441s-22.376-24.475-34.963-38.664l-165.722-184.452c-1.865-2.364-3.962-4.847-6.293-7.445-2.331-2.603-4.429-5.086-6.293-7.45-1.865-2.837-3.846-7.33-5.944-13.478s-1.981-13.244 0.35-21.282c2.797-8.043 6.876-13.837 12.237-17.382s9.673-6.029 12.936-7.45c2.797-0.947 5.827-1.775 9.091-2.483s6.526-1.301 9.789-1.775l39.857-8.512c0-3.311 0.116-6.622 0.349-9.933s0.349-6.618 0.349-9.929l0.699-5.679c1.865-32.158 5.245-60.301 10.139-84.42s18.064-46.822 39.508-68.105c21.444-21.756 43.587-34.88 66.429-39.373 22.84-4.493 49.183-7.684 79.015-9.574l4.894-0.713c5.129 0 10.492-0.115 16.085-0.354 5.594-0.235 11.187-0.354 16.781-0.354s11.187 0.119 16.781 0.354c5.594 0.239 10.957 0.354 16.085 0.354l4.894 0.713c29.833 1.89 56.175 5.082 79.014 9.574 22.844 4.493 44.988 17.617 66.428 39.373 21.444 21.282 34.615 43.985 39.509 68.105s8.273 52.262 10.138 84.42l0.7 5.679c0 3.311 0.119 6.618 0.35 9.929 0.235 3.311 0.35 6.622 0.35 9.933l39.859 8.512c3.264 0.474 6.524 1.067 9.788 1.775s6.293 1.536 9.092 2.483c3.264 1.421 7.573 3.904 12.937 7.45 5.359 3.546 9.438 9.34 12.237 17.382 2.33 8.038 2.445 15.134 0.35 21.282-2.099 6.148-4.079 10.641-5.943 13.478-1.865 2.364-3.964 4.847-6.293 7.45-2.334 2.598-4.429 5.082-6.293 7.445l-165.726 184.452c-12.587 14.188-24.239 27.076-34.961 38.664s-20.745 21.401-30.067 29.441c-10.257 8.513-20.979 15.489-32.166 20.928s-23.543 8.158-37.060 8.158z" />
<glyph unicode="&#xe92b;" glyph-name="image" d="M173.333 527.113c4.148 49.184 9.185 88.295 15.111 117.332s21.333 56 46.222 80.889c24.889 24.889 51.852 40.296 80.889 46.222s68.148 10.667 117.332 14.223c13.039 1.185 26.223 2.074 39.556 2.667s26.517 0.889 39.556 0.889c13.039 0 26.223-0.296 39.556-0.889s26.517-1.482 39.556-2.667c49.182-3.556 88.294-8.297 117.333-14.223 29.035-5.926 56-21.333 80.887-46.222s40.294-51.852 46.221-80.889c5.926-29.037 10.965-68.148 15.113-117.332 0.593-13.039 1.186-26.223 1.779-39.556s0.887-26.517 0.887-39.556c0-13.039-0.294-26.223-0.887-39.556s-1.186-26.517-1.779-39.556c-4.147-49.182-9.186-88.294-15.113-117.333-5.926-29.035-21.333-56-46.221-80.887s-51.853-40.294-80.887-46.221c-29.039-5.926-68.151-10.965-117.333-15.113-13.039-0.593-26.223-1.186-39.556-1.779s-26.517-0.887-39.556-0.887c-13.039 0-26.223 0.294-39.556 0.887s-26.517 1.186-39.556 1.779c-49.184 4.147-88.295 9.186-117.332 15.113s-56 21.333-80.889 46.221c-24.889 24.887-40.296 51.853-46.222 80.887-5.926 29.039-10.963 68.151-15.111 117.333-0.593 13.039-1.185 26.223-1.778 39.556s-0.889 26.517-0.889 39.556c0 13.039 0.296 26.223 0.889 39.556s1.185 26.517 1.778 39.556zM281.778 231.113c1.185-1.186 2.222-2.372 3.111-3.558 0.889-1.182 1.926-2.368 3.111-3.554 13.629-13.039 29.185-21.777 46.667-26.223s52.296-8.738 104.446-12.89c11.849-0.593 23.851-1.182 35.998-1.775s24.444-0.892 36.89-0.892c12.446 0 24.742 0.299 36.89 0.892s24.149 1.182 35.998 1.775c52.151 4.151 86.963 8.444 104.444 12.89 17.485 4.446 33.041 13.184 46.669 26.223 11.853 11.853 20.002 25.186 24.444 40 4.446 14.814 8.444 41.779 12.002 80.887-5.926 25.485-13.188 49.63-21.777 72.444-8.593 22.818-18.223 45.483-28.89 68.002-13.632 26.667-25.779 46.076-36.446 58.222-10.667 12.148-20.446 18.223-29.333 18.223-8.294 0-17.924-6.074-28.89-18.223-10.961-12.146-23.258-31.555-36.89-58.222l-62.221-123.554c-9.481-18.965-23.407-28.151-41.779-27.558-18.368 0.593-32.294 10.372-41.775 29.333-6.519 13.039-13.632 24-21.335 32.892-7.704 8.887-16 13.333-24.889 13.333-10.667 0-20.593-6.37-29.777-19.115-9.185-12.74-21.185-31.552-36-56.444l-50.667-103.108zM502.221 561.778c0 18.37-6.37 34.074-19.11 47.111s-28.297 19.556-46.665 19.556c-18.372 0-34.075-6.519-47.113-19.556s-19.555-28.741-19.555-47.111c0-18.371 6.518-34.072 19.555-47.111s28.741-19.554 47.113-19.554c18.368 0 33.924 6.515 46.665 19.554s19.11 28.741 19.11 47.111z" />
<glyph unicode="&#xe92c;" glyph-name="info" d="M538.667 474.667c3.554-3.554 6.37-7.706 8.444-12.446s3.11-9.481 3.11-14.221v-152c0-10.074-3.703-18.816-11.11-26.223s-16.444-11.11-27.11-11.11c-10.667 0-19.703 3.703-27.11 11.11s-11.11 16.149-11.11 26.223v113.779h-18.667c-10.667 0-19.703 3.703-27.115 11.11-7.405 7.407-11.109 16.444-11.109 27.11s3.704 19.703 11.109 27.11c7.411 7.407 16.448 11.11 27.115 11.11h56.887c4.74 0 9.481-1.037 14.221-3.11s8.892-4.89 12.446-8.444zM502.221 552c13.039 0 24.299 4.741 33.779 14.222s14.221 20.741 14.221 33.778c0 13.037-4.74 24.148-14.221 33.333s-20.74 13.778-33.779 13.778c-13.035 0-24.145-4.593-33.331-13.778s-13.777-20.296-13.777-33.333c0-13.037 4.591-24.296 13.777-33.778s20.297-14.222 33.331-14.222zM234.667 725.333c24.889 24.889 51.852 40.296 80.889 46.222s68.148 10.963 117.332 15.111c13.039 0.593 26.223 1.185 39.556 1.778s26.517 0.889 39.556 0.889c13.039 0 26.223-0.296 39.556-0.889s26.517-1.185 39.556-1.778c49.182-4.148 88.294-9.185 117.333-15.111 29.035-5.926 56-21.333 80.887-46.222s40.294-51.852 46.221-80.889c5.926-29.037 10.965-68.148 15.113-117.332 0.593-13.039 1.186-26.223 1.779-39.556s0.887-26.517 0.887-39.556c0-13.039-0.294-26.223-0.887-39.556s-1.186-26.517-1.779-39.556c-4.147-49.182-9.186-88.294-15.113-117.333-5.926-29.035-21.333-56-46.221-80.887s-51.853-40.294-80.887-46.221c-29.039-5.926-68.151-10.965-117.333-15.113-13.039-0.593-26.223-1.186-39.556-1.779s-26.517-0.887-39.556-0.887c-13.039 0-26.223 0.294-39.556 0.887s-26.517 1.186-39.556 1.779c-49.184 4.147-88.295 9.186-117.332 15.113s-56 21.333-80.889 46.221c-24.889 24.887-40.296 51.853-46.222 80.887-5.926 29.039-10.963 68.151-15.111 117.333-0.593 13.039-1.185 26.223-1.778 39.556s-0.889 26.517-0.889 39.556c0 13.039 0.296 26.223 0.889 39.556s1.185 26.517 1.778 39.556c4.148 49.184 9.185 88.295 15.111 117.332s21.333 56 46.222 80.889zM512 713.778c-12.446 0-24.742-0.297-36.89-0.889s-24.149-1.481-35.998-2.667c-52.15-3.555-86.964-7.555-104.446-12s-33.037-13.185-46.667-26.222c-13.037-13.629-21.778-29.185-26.222-46.667s-8.445-52.296-12-104.446c-1.185-11.849-2.074-23.851-2.667-35.998s-0.889-24.444-0.889-36.89c0-12.446 0.297-24.742 0.889-36.89s1.481-24.149 2.667-35.998c3.555-52.151 7.555-86.963 12-104.444 4.444-17.485 13.185-33.041 26.222-46.669 13.629-13.039 29.185-21.777 46.667-26.223s52.296-8.444 104.446-11.998c11.849-1.186 23.851-2.074 35.998-2.667s24.444-0.892 36.89-0.892c12.446 0 24.742 0.299 36.89 0.892s24.149 1.481 35.998 2.667c52.151 3.554 86.963 7.552 104.444 11.998 17.485 4.446 33.041 13.184 46.669 26.223 13.039 13.628 21.777 29.184 26.223 46.669 4.446 17.481 8.444 52.292 11.998 104.444 1.186 11.849 2.074 23.851 2.667 35.998s0.892 24.444 0.892 36.89c0 12.446-0.299 24.742-0.892 36.89s-1.481 24.149-2.667 35.998c-3.554 52.15-7.552 86.964-11.998 104.446s-13.184 33.037-26.223 46.667c-13.628 13.037-29.184 21.778-46.669 26.222-17.481 4.445-52.292 8.445-104.444 12-11.849 1.185-23.851 2.074-35.998 2.667s-24.444 0.889-36.89 0.889z" />
<glyph unicode="&#xe92d;" glyph-name="job" d="M648.691 654.389c0 8.944-0.397 17.493-1.199 25.647-0.798 8.154-1.732 16.177-2.795 24.069-1.6 13.152-3.465 23.806-5.598 31.96-2.129 8.154-7.194 16.177-15.185 24.069-7.462 7.892-15.189 13.152-23.185 15.783-7.991 2.631-18.65 5.261-31.974 7.892-8.525 1.578-17.587 2.894-27.179 3.946s-19.452 1.578-29.577 1.578c-10.125 0-19.985-0.526-29.577-1.578s-18.654-2.368-27.179-3.946c-13.325-2.63-23.983-5.261-31.976-7.892s-15.721-7.891-23.182-15.783c-7.994-7.892-13.056-15.915-15.188-24.069s-3.997-18.808-5.596-31.96c-1.066-7.892-1.999-15.915-2.798-24.069s-1.199-16.704-1.199-25.647v-5.524h-1.599c-34.639-2.63-62.618-6.445-83.934-11.443s-42.9-18.545-64.75-40.641c-22.383-22.096-35.972-42.877-40.768-62.343-4.796-19.464-8.527-45.243-11.191-77.337-0.533-8.418-1.066-17.361-1.599-26.829-0.533-9.472-0.8-18.94-0.8-28.412 0-9.468 0.267-18.94 0.8-28.407 0.533-9.472 1.066-18.415 1.599-26.833 2.665-32.090 6.395-57.869 11.191-77.338 4.796-19.465 18.385-40.243 40.768-62.34 21.85-22.097 43.433-35.644 64.75-40.64 21.317-5.001 49.295-8.815 83.934-11.443 19.718-1.579 41.035-2.893 63.95-3.947s47.697-1.579 74.342-1.579 51.426 0.525 74.342 1.579c22.916 1.054 44.233 2.368 63.949 3.947 34.641 2.628 62.618 6.443 83.934 11.443 21.316 4.996 42.901 18.543 64.751 40.64 22.383 22.097 35.972 42.876 40.768 62.34 4.796 19.469 8.525 45.248 11.191 77.338 0.533 8.943 1.067 18.018 1.6 27.226s0.798 18.547 0.798 28.015c0 9.472-0.265 18.807-0.798 28.015s-1.067 18.283-1.6 27.226c-2.667 32.094-6.396 57.873-11.191 77.337-4.796 19.466-18.385 40.247-40.768 62.343-21.85 22.096-43.435 35.643-64.751 40.641s-49.293 8.812-83.934 11.443h-1.6v5.524zM468.036 717.521c6.925 1.052 14.118 1.973 21.581 2.762s14.921 1.184 22.383 1.184c7.462 0 14.921-0.395 22.383-1.184s14.656-1.71 21.581-2.762c3.733-1.052 6.797-1.71 9.195-1.973s4.395-0.657 5.995-1.184c1.067 0 1.732-0.131 2.001-0.395 0.265-0.263 0.666-0.395 1.199-0.395 0-0.526 0.132-1.052 0.397-1.578 0.269-0.526 0.401-1.052 0.401-1.578 0-2.104 0.265-4.34 0.798-6.708s1.067-5.393 1.6-9.075c0.533-6.313 1.067-12.89 1.6-19.729s0.798-13.679 0.798-20.518v-1.578c-10.658 0.526-21.581 0.92-32.772 1.184s-22.916 0.395-35.174 0.395c-12.258 0-23.983-0.131-35.174-0.395s-22.114-0.657-32.772-1.184v1.578c0 6.839 0.265 13.679 0.798 20.518s1.067 13.415 1.6 19.729c0.533 3.683 1.067 6.708 1.6 9.075s0.798 4.603 0.798 6.708c0 0.526 0.132 1.052 0.401 1.578 0.265 0.526 0.397 1.052 0.397 1.578 0.533 0 0.934 0.132 1.199 0.395 0.269 0.263 0.934 0.395 2.001 0.395 1.6 0.526 3.597 0.921 5.995 1.184s5.461 0.921 9.195 1.973zM512 337.941c-13.325 0-24.649 4.604-33.975 13.807-9.323 9.207-13.986 20.386-13.986 33.54 0 12.625 4.663 23.543 13.986 32.751 9.327 9.207 20.651 13.811 33.975 13.811s24.649-4.604 33.975-13.811c9.323-9.207 13.986-20.126 13.986-32.751 0-13.154-4.663-24.333-13.986-33.54-9.327-9.203-20.651-13.807-33.975-13.807z" />
<glyph unicode="&#xe92e;" glyph-name="like" d="M117.125 533.617c0 49.359 40.013 89.373 89.373 89.373h29.137c49.359 0 89.373-40.013 89.373-89.373v-402.18c0-49.357-40.013-89.37-89.373-89.37h-29.137c-49.359 0-89.373 40.013-89.373 89.37v402.18zM415.432 86.752v446.865l96.594 105.375c44.277 48.301 77.194 105.892 96.341 168.557l2.943 9.63c10.775 35.264 53.881 48.327 82.419 24.978 13.754-11.256 20.787-28.775 18.63-46.419l-23.84-195.093c0-37.019 30.010-36.912 67.027-36.912h42.202c60.326 0 109.235-79.023 109.235-139.351v-40.485c0-222.535-178.598-297.146-366.002-297.146h-125.549z" />
<glyph unicode="&#xe92f;" glyph-name="link" d="M538.112 317.402l-104.452-104.478c-43.194-43.209-113.484-43.217-156.683-0.004-20.927 20.932-32.449 48.759-32.449 78.362 0 29.594 11.522 57.421 32.442 78.353l104.459 104.486c14.42 14.426 14.42 37.815-0.003 52.241-14.42 14.423-37.804 14.423-52.227 0l-104.473-104.503c-34.86-34.884-54.059-81.259-54.059-130.577 0-49.335 19.206-95.718 54.083-130.603 36-36.006 83.283-54.012 130.568-54.012s94.572 18.005 130.566 54.012l104.452 104.486c14.421 14.421 14.421 37.811 0 52.237-14.417 14.426-37.798 14.426-52.224 0zM853.333 604.723c0 49.334-19.209 95.716-54.084 130.602-72 72.013-189.146 72.010-261.137 0l-0.009-0.012-104.448-104.473c-14.423-14.424-14.423-37.817 0-52.24 3.426-3.436 7.497-6.161 11.977-8.018s9.289-2.81 14.135-2.803c9.451 0 18.906 3.608 26.116 10.821l104.461 104.485c43.191 43.205 113.476 43.207 156.676 0 20.924-20.932 32.452-48.763 32.452-78.362 0-29.596-11.524-57.422-32.444-78.353l-104.461-104.491c-14.417-14.421-14.417-37.811 0.004-52.237 3.426-3.439 7.497-6.161 11.977-8.017 4.48-1.86 9.284-2.812 14.135-2.807 9.451 0 18.901 3.61 26.112 10.825l104.474 104.503c34.863 34.88 54.063 81.255 54.063 130.577zM381.433 317.406c3.425-3.439 7.496-6.161 11.977-8.017 4.481-1.86 9.285-2.812 14.136-2.807 9.452 0 18.903 3.61 26.115 10.825l208.909 208.96c14.421 14.423 14.421 37.813 0 52.239-14.421 14.424-37.807 14.424-52.228 0l-208.908-208.958c-14.422-14.43-14.422-37.82 0-52.241z" />
<glyph unicode="&#xe930;" glyph-name="mail" d="M373.708 698.745c19.718 1.501 41.035 2.753 63.95 3.754 22.916 1.001 47.697 1.501 74.342 1.501s51.426-0.5 74.342-1.501c22.916-1.001 44.233-2.252 63.949-3.754 34.641-2.502 62.353-6.256 83.136-11.261s42.368-17.767 64.751-38.287c4.796-4.504 9.058-9.009 12.787-13.513 3.733-4.504 7.194-9.009 10.394-13.513-12.258-10.51-30.11-24.399-53.559-41.666s-49.826-34.158-79.138-50.674c-8.525-4.506-17.054-8.883-25.579-13.137-8.529-4.254-17.323-8.636-26.381-13.137-33.574-15.518-57.954-26.027-73.143-31.535-15.185-5.504-32.375-8.256-51.558-8.256s-36.373 2.752-51.558 8.256c-15.189 5.508-39.57 16.017-73.144 31.535-9.059 4.501-17.853 8.883-26.379 13.137s-17.053 8.631-25.58 13.137c-29.31 16.516-55.69 33.407-79.138 50.674s-41.301 31.156-53.558 41.666c3.198 4.504 6.662 9.009 10.392 13.513s7.994 9.009 12.79 13.513c22.383 20.52 43.965 33.283 64.749 38.287s48.496 8.759 83.135 11.261zM178.66 557.607c14.389-12.012 32.108-25.276 53.159-39.787 21.050-14.515 44.099-28.779 69.146-42.795 9.060-5.005 18.252-9.882 27.578-14.639 9.326-4.753 18.785-9.382 28.378-13.888 32.508-15.514 59.42-27.153 80.736-34.91s46.097-11.635 74.342-11.635c28.245 0 53.026 3.878 74.342 11.635s48.23 19.396 80.738 34.91c9.591 4.506 19.051 9.135 28.378 13.888 9.323 4.757 18.517 9.634 27.575 14.639 25.050 14.016 48.098 28.279 69.146 42.795 21.052 14.511 38.771 27.776 53.158 39.787 1.067-6.506 2.001-13.388 2.799-20.645 0.802-7.255 1.468-14.888 2.001-22.897 1.062-10.509 1.865-21.269 2.398-32.282s0.798-22.272 0.798-33.783c0-11.511-0.265-22.899-0.798-34.159s-1.335-21.897-2.398-31.906c-2.667-31.031-6.528-56.055-11.593-75.072-5.065-19.021-18.517-39.040-40.367-60.058-22.383-20.523-43.968-33.284-64.751-38.289s-48.495-8.759-83.136-11.26c-19.716-1.502-41.033-2.752-63.949-3.755s-47.697-1.502-74.342-1.502c-26.645 0-51.426 0.499-74.342 1.502s-44.232 2.253-63.95 3.755c-34.639 2.5-62.351 6.255-83.135 11.26s-42.367 17.766-64.749 38.289c-21.85 21.018-35.306 41.037-40.369 60.058-5.062 19.017-8.926 44.041-11.591 75.072-1.066 10.010-1.865 20.646-2.398 31.906s-0.8 22.647-0.8 34.159c0 11.511 0.267 22.899 0.8 34.159s1.332 21.897 2.398 31.906c0.533 8.009 1.199 15.642 1.999 22.897 0.8 7.257 1.732 14.139 2.798 20.645z" />
<glyph unicode="&#xe931;" glyph-name="arrow-scroll-up" d="M487.68 908.902c-7.117-7.219-7.27-7.27-18.176-7.27h-11.008v-21.862l-428.032-428.083 25.139-25.088 25.139-25.139 377.754 377.754v-817.971h72.96v817.971l377.754-377.754 50.278 50.278-428.032 430.182v19.712h-10.189c-9.984 0-10.394 0.205-17.357 7.27-2.422 2.719-5.089 5.126-7.996 7.223l-0.144 0.099c-3.027-2.202-5.678-4.608-8.046-7.271l-0.044-0.050z" />
<glyph unicode="&#xe932;" glyph-name="minus" d="M853.333 448c0-11.908-4.173-21.995-12.514-30.263s-18.185-12.403-29.525-12.403h-598.586c-11.345 0-21.187 4.134-29.529 12.403s-12.512 18.355-12.512 30.263c0 11.908 4.171 21.995 12.512 30.263s18.184 12.403 29.529 12.403h598.586c11.341 0 21.184-4.134 29.525-12.403s12.514-18.355 12.514-30.263z" />
<glyph unicode="&#xe933;" glyph-name="ok" d="M560.666 562c0 12.889-4.779 24-14.332 33.333-9.557 9.334-21.222 14-34.999 14-13.333 0-24.781-4.666-34.334-14-9.557-9.333-14.332-20.444-14.332-33.333 0-13.333 4.774-24.556 14.332-33.667 9.553-9.109 21.001-13.666 34.334-13.666 13.777 0 25.442 4.557 34.999 13.666 9.553 9.111 14.332 20.334 14.332 33.667zM174 526.669c3.556 49.776 8.334 89.109 14.333 117.998s21.445 55.778 46.333 80.666c24.889 24.889 51.778 40.333 80.666 46.333s68.222 10.778 117.998 14.333c12.89 1.333 25.89 2.222 39.002 2.667s26.334 0.666 39.667 0.666c13.333 0 26.556-0.222 39.667-0.666s26.112-1.334 39.002-2.667c49.775-3.556 89.109-8.334 117.999-14.333s55.778-21.445 80.666-46.333c24.887-24.889 40.333-51.778 46.332-80.666 6.003-28.889 10.778-68.222 14.336-117.998 0.887-12.89 1.664-25.89 2.334-39.002 0.666-13.111 0.998-26.334 0.998-39.667s-0.333-26.556-0.998-39.667c-0.67-13.111-1.446-26.112-2.334-39.002-3.558-49.775-8.333-89.109-14.336-117.999-5.999-28.89-21.444-55.778-46.332-80.666s-51.776-40.333-80.666-46.332c-28.89-6.003-68.224-10.778-117.999-14.336-12.89-1.331-25.89-2.223-39.002-2.667s-26.334-0.666-39.667-0.666c-13.333 0-26.556 0.222-39.667 0.666s-26.112 1.335-39.002 2.667c-49.776 3.558-89.109 8.333-117.998 14.336-28.889 5.999-55.778 21.444-80.666 46.332s-40.333 51.776-46.333 80.666c-6 28.89-10.778 68.224-14.333 117.999-1.333 12.89-2.222 25.89-2.667 39.002s-0.666 26.334-0.666 39.667c0 13.333 0.222 26.556 0.666 39.667s1.334 26.112 2.667 39.002zM511.334 447.334c32.887 0 60.89 11.221 83.998 33.664 23.113 22.447 34.667 49.446 34.667 81.002s-11.554 58.555-34.667 81c-23.108 22.444-51.11 33.667-83.998 33.667-32.444 0-60.224-11.223-83.337-33.667-23.109-22.444-34.665-49.444-34.665-81s11.555-58.555 34.665-81.002c23.113-22.443 50.893-33.664 83.337-33.664zM560 354.001c11.998 2.667 23.778 6.332 35.332 10.999 11.558 4.668 22.669 10.112 33.335 16.333 8.444 4.89 13.666 11.887 15.667 21.001 1.997 9.109 0.555 17.668-4.335 25.664-5.333 7.556-12.668 12.446-21.999 14.669-9.335 2.223-18.001 0.666-26.001-4.668-24.444-14.665-51.11-21.999-80-21.999s-55.556 7.334-80 21.999c-8 5.333-16.666 6.891-26 4.668s-16.666-7.113-22-14.669c-4.889-7.996-6.333-16.555-4.333-25.664 2-9.114 7.222-16.111 15.666-21.001 10.667-6.221 21.778-11.665 33.335-16.333 11.554-4.668 23.334-8.333 35.332-10.999l-66.667-64c-6.667-6.669-10-14.669-10-24 0-9.335 3.334-17.114 10-23.334 3.555-3.554 7.444-6.11 11.667-7.667 4.222-1.553 8.556-2.334 13-2.334s8.78 0.781 13 2.334c4.224 1.557 8.111 4.113 11.669 7.667l65.331 62.665 65.331-62.665c6.669-6.669 14.78-10.001 24.337-10.001 9.553 0 17.664 3.332 24.333 10.001 7.108 6.221 10.667 13.999 10.667 23.334 0 9.331-3.558 17.331-10.667 24l-66.001 64z" />
<glyph unicode="&#xe934;" glyph-name="orientation-clockwise" d="M464.555 534.095c-10.889-7.619-22.293-8.382-34.223-2.285-11.924 6.095-17.887 15.745-17.887 28.952 0 5.587 1.296 10.667 3.889 15.238s5.963 8.381 10.111 11.429l10.889 7.619c8.815 6.095 16.853 11.683 24.111 16.762s13.743 9.651 19.443 13.714c-5.184 0-10.628-0.127-16.333-0.381s-11.149-0.635-16.333-1.143c-45.629-3.555-76.092-7.111-91.389-10.667s-28.908-11.175-40.833-22.857c-11.407-11.175-19.055-24.254-22.944-39.238s-7.389-44.827-10.5-89.525c-1.037-10.667-1.815-21.077-2.333-31.236s-0.778-20.574-0.778-31.241c0-8.631-3.111-16.252-9.333-22.857-6.222-6.601-13.741-9.903-22.556-9.903h-1.556c-8.815 0-16.463 3.046-22.944 9.143-6.481 6.093-9.722 13.457-9.722 22.093v1.523c0 11.174 0.259 22.353 0.778 33.527l1.556 33.523c3.63 42.667 8.037 76.316 13.222 100.951s18.667 47.873 40.445 69.714c21.778 21.333 45.37 34.54 70.778 39.619s59.63 9.143 102.667 12.191c6.741 0.508 13.483 0.889 20.224 1.143 6.737 0.254 13.222 0.635 19.443 1.143-5.705 4.064-12.314 8.762-19.836 14.095-7.518 5.333-15.94 11.047-25.276 17.143l-10.889 7.619c-4.148 3.048-7.518 6.984-10.111 11.81s-3.889 9.778-3.889 14.857c0 9.651 3.37 17.524 10.111 23.619 6.739 6.095 14.517 9.143 23.332 9.143 3.11 0 6.353-0.508 9.724-1.524s6.353-2.54 8.943-4.572l10.889-7.619c38.891-26.413 67.925-47.873 87.113-64.381 19.183-16.508 28.779-33.905 28.779-52.19 0-18.794-9.596-36.317-28.779-52.571-19.187-16.254-48.222-37.841-87.113-64.762l-10.889-7.619zM565.666 108.19c-29.035 2.031-51.981 4.826-68.834 8.38-16.849 3.558-32.538 12.446-47.053 26.667-14.519 14.225-23.594 29.589-27.223 46.097s-6.481 38.985-8.556 67.43c-0.518 7.108-0.907 14.473-1.167 22.093s-0.389 15.241-0.389 22.857c0 7.62 0.129 15.241 0.389 22.857 0.259 7.62 0.648 14.985 1.167 22.097 2.074 28.446 4.926 50.923 8.556 67.43s12.704 31.872 27.223 46.093c14.515 14.221 30.204 23.113 47.053 26.667 16.853 3.554 39.799 6.349 68.834 8.38 7.262 0.508 14.78 0.892 22.558 1.143 7.778 0.256 15.552 0.384 23.33 0.384s15.556-0.128 23.334-0.384c7.778-0.252 15.296-0.636 22.558-1.143 29.035-2.031 51.981-4.826 68.83-8.38 16.853-3.554 32.538-12.446 47.057-26.667s23.595-29.585 27.221-46.093c3.631-16.508 6.481-38.985 8.555-67.43 0.521-7.113 0.909-14.477 1.169-22.097 0.26-7.616 0.388-15.236 0.388-22.857 0-7.616-0.128-15.236-0.388-22.857s-0.649-14.985-1.169-22.093c-2.074-28.446-4.924-50.923-8.555-67.43-3.627-16.508-12.702-31.872-27.221-46.097-14.519-14.221-30.204-23.108-47.057-26.667-16.849-3.554-39.795-6.349-68.83-8.38-7.262-0.508-14.78-0.887-22.558-1.143-7.778-0.252-15.556-0.38-23.334-0.38s-15.552 0.128-23.33 0.38c-7.778 0.256-15.296 0.636-22.558 1.143z" />
<glyph unicode="&#xe935;" glyph-name="orientation-counterclockwise" d="M559.445 534.095c10.889-7.619 22.293-8.382 34.223-2.285 11.925 6.095 17.886 15.745 17.886 28.952 0 5.587-1.293 10.667-3.887 15.238s-5.965 8.381-10.112 11.429l-10.889 7.619c-8.815 6.095-16.853 11.683-24.111 16.762s-13.743 9.651-19.443 13.714c5.184 0 10.628-0.127 16.333-0.381s11.149-0.635 16.333-1.143c45.628-3.555 76.092-7.111 91.388-10.667s28.907-11.175 40.836-22.857c11.405-11.175 19.055-24.254 22.942-39.238 3.891-14.984 7.39-44.827 10.5-89.525 1.037-10.667 1.813-21.077 2.334-31.236 0.516-10.159 0.777-20.574 0.777-31.241 0-8.631 3.11-16.252 9.335-22.857 6.221-6.601 13.739-9.903 22.554-9.903h1.557c8.815 0 16.461 3.046 22.942 9.143 6.481 6.093 9.724 13.457 9.724 22.093v1.523c0 11.174-0.26 22.353-0.777 33.527l-1.557 33.523c-3.631 42.667-8.038 76.316-13.222 100.951s-18.667 47.873-40.444 69.714c-21.777 21.333-45.372 34.54-70.78 39.619-25.404 5.079-59.627 9.143-102.665 12.191-6.741 0.508-13.483 0.889-20.224 1.143-6.737 0.254-13.222 0.635-19.443 1.143 5.705 4.064 12.314 8.762 19.836 14.095 7.518 5.333 15.94 11.047 25.276 17.143l10.889 7.619c4.147 3.048 7.518 6.984 10.112 11.81s3.887 9.778 3.887 14.857c0 9.651-3.371 17.524-10.108 23.619-6.741 6.095-14.519 9.143-23.334 9.143-3.11 0-6.353-0.508-9.724-1.524s-6.353-2.54-8.943-4.572l-10.889-7.619c-38.891-26.413-67.925-47.873-87.113-64.381-19.183-16.508-28.779-33.905-28.779-52.19 0-18.794 9.596-36.317 28.779-52.571 19.187-16.254 48.222-37.841 87.113-64.762l10.889-7.619zM458.334 108.19c29.035 2.031 51.981 4.826 68.834 8.38 16.849 3.558 32.538 12.446 47.053 26.667 14.519 14.225 23.595 29.589 27.226 46.097 3.627 16.508 6.481 38.985 8.555 67.43 0.516 7.108 0.905 14.473 1.165 22.093s0.388 15.241 0.388 22.857c0 7.62-0.128 15.241-0.388 22.857-0.26 7.62-0.649 14.985-1.165 22.097-2.074 28.446-4.928 50.923-8.555 67.43-3.631 16.508-12.706 31.872-27.226 46.093-14.515 14.221-30.204 23.113-47.053 26.667-16.853 3.554-39.799 6.349-68.834 8.38-7.262 0.508-14.78 0.892-22.558 1.143-7.778 0.256-15.554 0.384-23.331 0.384s-15.556-0.128-23.334-0.384c-7.778-0.252-15.296-0.636-22.555-1.143-29.037-2.031-51.982-4.826-68.833-8.38s-32.537-12.446-47.056-26.667c-14.519-14.221-23.593-29.585-27.222-46.093s-6.481-38.985-8.556-67.43c-0.518-7.113-0.908-14.477-1.167-22.097-0.259-7.616-0.389-15.236-0.389-22.857 0-7.616 0.13-15.236 0.389-22.857s0.648-14.985 1.167-22.093c2.074-28.446 4.926-50.923 8.556-67.43s12.704-31.872 27.222-46.097c14.519-14.221 30.204-23.108 47.056-26.667 16.852-3.554 39.796-6.349 68.833-8.38 7.259-0.508 14.778-0.887 22.555-1.143 7.778-0.252 15.556-0.38 23.334-0.38s15.553 0.128 23.331 0.38c7.778 0.256 15.296 0.636 22.558 1.143z" />
<glyph unicode="&#xe936;" glyph-name="phone" d="M325.394 787.334c7.7 1.777 15.991 2.369 24.876 1.777s17.176-2.665 24.876-6.219c8.884-3.554 19.101-8.736 30.65-15.547s23.248-15.843 35.092-27.097c15.991-16.584 28.134-30.502 36.425-41.755 8.294-11.253 12.736-26.948 13.325-47.086 0.593-19.545-3.55-35.685-12.437-48.419-8.883-12.734-22.208-28.873-39.979-48.419-5.329-5.33-10.658-10.809-15.99-16.436-5.331-5.625-10.957-11.103-16.88-16.436l11.549-13.325 155.473-154.586 13.325-11.55 16.435 16.435c5.628 5.628 11.106 10.812 16.435 15.548 19.546 17.771 35.686 31.095 48.418 39.979 12.736 8.887 28.877 13.030 48.422 12.437 19.541-0.589 35.089-5.030 46.639-13.325 11.55-8.29 25.617-20.433 42.202-36.425 11.251-11.251 20.284-22.801 27.098-34.65 6.81-11.844 11.994-22.208 15.543-31.091 3.554-7.701 5.628-15.991 6.221-24.879 0.593-8.883 0-17.173-1.775-24.875-2.965-13.030-8.444-28.873-16.439-47.531-7.996-18.654-20.284-35.981-36.868-51.972-8.29-8.29-16.585-15.398-24.875-21.321s-17.178-11.251-26.654-15.991c-33.165-14.805-68.109-20.433-104.832-16.879-36.719 3.554-71.074 13.623-103.057 30.204-26.057 13.030-54.635 30.208-85.73 51.529-31.095 21.325-65.594 50.935-103.5 88.841-38.498 38.498-69.444 74.334-92.839 107.499-23.395 33.169-41.607 62.784-54.638 88.841-16.584 31.983-26.652 66.336-30.206 103.057s2.073 71.665 16.88 104.833c4.738 9.477 10.069 18.361 15.991 26.653s13.030 16.584 21.322 24.876 32.575 28.873 51.528 36.869c18.953 7.996 34.944 13.474 47.974 16.436z" />
<glyph unicode="&#xe937;" glyph-name="play" d="M311.101 821.187c55.101 33.602 128.033-13.529 273.894-107.791l46.515-30.059c147.883-95.568 221.824-143.352 221.824-214.004s-73.941-118.434-221.824-214.003l-46.515-30.059c-145.86-94.263-218.793-141.393-273.894-107.793-55.101 33.604-55.101 125.21-55.101 308.42v86.869c0 183.211 0 274.817 55.101 308.419zM754.778 510.502c-32.145 28.453-82.3 61.090-158.195 110.138l-46.515 30.059c-74.901 48.404-124.474 80.212-162.061 97.002-18.138 8.102-29.226 10.659-35.725 11.108-5.088 0.352-6.606-0.561-7.734-1.248s-2.636-1.621-4.973-6.501c-2.986-6.234-6.656-17.79-9.537-38.71-5.972-43.353-6.153-105.504-6.153-199.583v-86.869c0-94.080 0.181-156.228 6.153-199.582 2.882-20.919 6.551-32.478 9.537-38.711 2.337-4.877 3.845-5.811 4.973-6.498 1.128-0.691 2.646-1.6 7.734-1.25 6.499 0.448 17.588 3.008 35.725 11.106 37.587 16.789 87.159 48.602 162.061 97.003l46.515 30.059c75.9 49.050 126.050 81.685 158.195 110.14 30.771 27.238 30.69 38.293 30.673 40.994v0.35c0.017 2.701 0.098 13.756-30.673 40.994z" />
<glyph unicode="&#xe938;" glyph-name="plus" d="M469.333 149.333c0-23.565 19.102-42.667 42.667-42.667s42.667 19.102 42.667 42.667v256h256c23.565 0 42.667 19.102 42.667 42.667s-19.102 42.667-42.667 42.667h-256v256c0 23.564-19.102 42.667-42.667 42.667s-42.667-19.102-42.667-42.667v-256h-256c-23.564 0-42.667-19.102-42.667-42.667s19.102-42.667 42.667-42.667h256v-256z" />
<glyph unicode="&#xe939;" glyph-name="question" d="M234.667 725.333c-24.889-24.889-40.296-51.852-46.222-80.889s-10.963-68.148-15.111-117.332c-0.593-13.039-1.185-26.223-1.778-39.556s-0.889-26.517-0.889-39.556c0-13.039 0.296-26.223 0.889-39.556s1.185-26.517 1.778-39.556c4.148-49.182 9.185-88.294 15.111-117.333 5.926-29.035 21.333-56 46.222-80.887s51.852-40.294 80.889-46.221c29.037-5.926 68.148-10.965 117.332-15.113 13.039-0.593 26.223-1.186 39.556-1.779s26.517-0.887 39.556-0.887c13.039 0 26.223 0.294 39.556 0.887s26.517 1.186 39.556 1.779c49.182 4.147 88.294 9.186 117.333 15.113 29.035 5.926 56 21.333 80.887 46.221s40.294 51.853 46.221 80.887c5.926 29.039 10.965 68.151 15.113 117.333 0.593 13.039 1.186 26.223 1.779 39.556s0.887 26.517 0.887 39.556c0 13.039-0.294 26.223-0.887 39.556s-1.186 26.517-1.779 39.556c-4.147 49.184-9.186 88.295-15.113 117.332s-21.333 56-46.221 80.889c-24.887 24.889-51.853 40.296-80.887 46.222-29.039 5.926-68.151 10.963-117.333 15.111-13.039 0.593-26.223 1.185-39.556 1.778s-26.517 0.889-39.556 0.889c-13.039 0-26.223-0.296-39.556-0.889s-26.517-1.185-39.556-1.778c-49.184-4.148-88.295-9.185-117.332-15.111s-56-21.333-80.889-46.222zM413.333 632c12.445 1.185 27.409 2.371 44.89 3.555s35.405 1.778 53.777 1.778c16.593 0 32.593-0.445 48-1.333s29.333-1.926 41.779-3.111c10.667-1.185 21.035-2.963 31.108-5.333s19.26-7.407 27.558-15.111c9.481-8.297 15.701-16.741 18.667-25.333 2.961-8.593 5.333-16.445 7.108-23.556 1.186-6.518 2.223-13.037 3.11-19.555 0.892-6.519 1.335-13.333 1.335-20.446 0-5.926-0.444-12.147-1.335-18.667-0.887-6.515-1.924-12.74-3.11-18.667-1.182-7.701-3.405-16.444-6.665-26.223-3.26-9.775-9.63-19.11-19.11-27.998-10.074-8.294-20.74-13.483-32-15.556s-21.039-3.405-29.333-3.998c-2.965 0-5.926-0.149-8.892-0.448-2.961-0.294-5.926-0.444-8.887-0.444-5.333-0.593-10.667-1.037-16-1.331-5.333-0.299-10.372-0.444-15.113-0.444l-4.89-18.667c-3.255-12.446-14.37-18.667-33.331-18.667-13.628 0-23.407 4.591-29.333 13.777s-8.294 19.703-7.113 31.556c1.186 7.108 3.115 14.665 5.777 22.665 2.671 8 7.262 15.262 13.781 21.777 6.515 7.113 13.628 12.151 21.333 15.113 7.701 2.961 15.108 5.039 22.221 6.221 6.519 1.186 13.628 2.074 21.333 2.667s15.706 1.186 24 1.779c4.147 0 9.481 0.294 16 0.887l9.779 0.892c1.775 5.333 2.961 10.961 3.554 16.887s0.887 11.554 0.887 16.887c0 5.333-0.294 10.668-0.887 16.001s-1.779 10.667-3.554 16c-1.186 0-2.965 0.148-5.333 0.445-2.372 0.296-5.632 0.741-9.779 1.333-11.853 1.185-24.887 2.222-39.113 3.111-14.221 0.889-28.74 1.333-43.554 1.333-16.593 0-32.887-0.593-48.887-1.778s-29.926-2.371-41.779-3.555h-5.333c-1.185-0.593-1.778-1.037-1.778-1.333s-0.296-0.741-0.889-1.333v-0.889c-1.778-8.296-6.074-15.259-12.889-20.887-6.815-5.632-14.667-8.448-23.556-8.448-12.444 0-22.518 5.188-30.222 15.557s-9.778 21.185-6.222 32.444c0.593 4.148 1.629 8.297 3.111 12.445s4.297 8.889 8.445 14.222c1.778 3.556 3.852 6.519 6.222 8.889s4.741 4.444 7.111 6.222c1.778 1.778 4.148 3.704 7.111 5.778s5.926 3.703 8.889 4.889c5.333 2.371 10.667 4.148 16 5.333s10.667 2.074 16 2.667zM559.113 277.333c0-13.039-4.595-24.149-13.781-33.331-9.182-9.186-20.292-13.781-33.331-13.781s-24.149 4.595-33.331 13.781c-9.186 9.182-13.781 20.292-13.781 33.331s4.595 24.149 13.781 33.331c9.182 9.186 20.292 13.781 33.331 13.781s24.149-4.595 33.331-13.781c9.186-9.182 13.781-20.292 13.781-33.331z" />
<glyph unicode="&#xe93a;" glyph-name="search" d="M239.816 641.618c-10.593-19.421-17.067-36.634-19.421-51.641s-4.414-34.281-6.179-57.821c0-8.239-0.147-16.478-0.442-24.717s-0.441-16.183-0.441-23.834c0-8.239 0.147-16.478 0.441-24.717s0.442-16.183 0.442-23.834c1.766-24.132 3.825-43.699 6.179-58.705s8.827-31.927 19.421-50.761c6.473-12.945 18.097-27.806 34.869-44.578s31.338-28.395 43.697-34.867c19.421-10.594 36.634-17.067 51.641-19.422s34.281-4.122 57.821-5.295c8.239-0.589 16.329-1.033 24.277-1.327 7.945-0.294 16.034-0.439 24.273-0.439s16.478 0.145 24.717 0.439c8.239 0.294 16.183 0.738 23.834 1.327 24.132 1.173 43.699 2.94 58.705 5.295s31.927 8.828 50.761 19.422c2.351 1.178 4.855 2.645 7.501 4.412 2.65 1.766 5.444 3.827 8.388 6.178l138.594-139.473c7.65-7.061 16.623-10.594 26.923-10.594s19.273 3.533 26.923 10.594c7.061 7.65 10.594 16.623 10.594 26.923s-3.533 19.273-10.594 26.923l-139.473 138.594c2.351 2.944 4.412 5.739 6.178 8.388 1.766 2.645 3.234 5.15 4.412 7.501 10.005 18.833 16.333 35.755 18.982 50.761 2.645 15.006 4.561 34.573 5.734 58.705 0.589 7.65 1.033 15.595 1.327 23.834s0.439 16.478 0.439 24.717c0 7.65-0.145 15.595-0.439 23.834s-0.738 16.478-1.327 24.717c-1.173 23.541-3.089 42.814-5.734 57.821-2.65 15.007-8.977 32.221-18.982 51.641-6.473 12.359-18.095 26.924-34.867 43.697s-31.633 28.396-44.578 34.869c-18.833 10.593-35.755 17.067-50.761 19.421s-34.573 4.414-58.705 6.179c-7.65 0-15.595 0.147-23.834 0.442s-16.478 0.441-24.717 0.441c-8.239 0-16.329-0.147-24.273-0.441-7.949-0.294-16.038-0.442-24.277-0.442-23.541-1.766-42.814-3.825-57.821-6.179s-32.221-8.827-51.641-19.421c-12.359-6.473-26.924-18.097-43.697-34.869s-28.396-31.338-34.869-43.697zM432.256 669.867c7.65 0.588 15.155 1.030 22.511 1.324s14.566 0.442 21.628 0.442c7.65 0 15.155-0.147 22.511-0.442s14.566-0.736 21.628-1.324c23.539-1.177 39.723-2.501 48.55-3.972s18.833-5.444 30.016-11.917h0.883l0.439-0.442 1.323-1.324c0.589-0.589 1.472-1.324 2.65-2.207s2.355-1.618 3.533-2.207c2.94-2.354 5.884-4.855 8.828-7.503 2.94-2.648 5.884-5.444 8.828-8.387 2.94-2.942 5.739-5.885 8.384-8.827 2.65-2.943 4.855-5.591 6.622-7.945 1.178-1.177 2.206-2.354 3.089-3.531s1.617-2.354 2.206-3.531l0.444-0.883 0.439-0.883c0.589 0 0.883-0.147 0.883-0.441v-0.441c5.884-11.182 9.711-21.187 11.477-30.014s3.234-24.717 4.412-47.668c0.589-7.65 1.033-15.155 1.327-22.511s0.439-14.566 0.439-21.628c0-7.65-0.145-15.155-0.439-22.511s-0.738-14.566-1.327-21.628c-1.178-23.539-2.645-39.723-4.412-48.55s-5.594-18.833-11.477-30.016l-1.323-1.323c-0.294-0.294-0.444-0.738-0.444-1.323-0.589-1.178-1.323-2.21-2.206-3.093l-3.089-3.089c-1.766-2.94-3.972-5.884-6.622-8.828-2.645-2.94-5.444-5.884-8.384-8.828-2.944-2.94-5.888-5.739-8.828-8.384-2.944-2.65-5.888-4.855-8.828-6.622-1.178-1.178-2.355-2.206-3.533-3.089s-2.061-1.617-2.65-2.206c-0.585 0-1.028-0.149-1.323-0.444s-0.439-0.734-0.439-1.323h-0.883c-11.183-5.884-21.188-9.711-30.016-11.477s-25.011-3.234-48.55-4.412c-7.061-0.589-14.272-1.033-21.628-1.327s-14.861-0.439-22.511-0.439c-7.061 0-14.272 0.145-21.628 0.439s-14.861 0.738-22.511 1.327c-22.95 1.178-38.84 2.645-47.668 4.412s-18.832 5.594-30.014 11.477h-0.882c0 0.589-0.294 1.028-0.883 1.323l-0.883 0.444c-1.177 0.589-2.354 1.323-3.531 2.206s-2.354 1.911-3.531 3.089c-2.354 1.766-5.002 3.972-7.945 6.622-2.942 2.645-5.885 5.444-8.827 8.384-2.943 2.944-5.738 5.888-8.387 8.828-2.648 2.944-5.149 5.888-7.503 8.828-0.588 1.178-1.324 2.206-2.207 3.089s-1.618 1.916-2.207 3.093l-1.766 1.762v0.883c-6.473 11.183-10.446 21.188-11.917 30.016s-2.795 25.011-3.972 48.55c-0.588 7.061-1.030 14.272-1.324 21.628s-0.442 14.861-0.442 22.511c0 7.061 0.147 14.272 0.442 21.628s0.736 14.861 1.324 22.511c1.177 22.95 2.501 38.84 3.972 47.668s5.444 18.832 11.917 30.014v0.882l0.442 0.883c0.294 0.589 0.736 0.883 1.324 0.883 0.589 1.177 1.324 2.354 2.207 3.531s1.618 2.354 2.207 3.531c2.354 2.354 4.855 5.002 7.503 7.945s5.444 5.885 8.387 8.827c2.942 2.943 5.885 5.738 8.827 8.387s5.591 5.149 7.945 7.503c1.177 0.588 2.354 1.324 3.531 2.207s2.354 1.618 3.531 2.207c0 0.588 0.294 1.030 0.883 1.324l0.883 0.442h0.882c11.182 6.473 21.187 10.446 30.014 11.917s24.717 2.795 47.668 3.972z" />
</font>
</defs>
</svg>
